RIP=RELEASE
minato(流星P)

ADVANCED

Level: 5
BPM: 115
Notes: 378

1
口口口口 |----|
口口口口 |----|
口口口口 |----|
口口口口 |----|
2
口口④口 |--①-|
口口口② |-②--|
口⑤③口 |③--④|
①口口口 |--⑤-|
3
口口④口 |--①-|
口口口② |-②--|
口⑤③口 |③--④|
①口口口 |--⑤-|
4
口口口④ |--①-|
口⑤③口 |-②--|
口口口② |③--④|
口①口口 |--⑤-|
5
口口③④ |--①-|
口⑤口② |-②--|
①口口口 |③--④|
口口口口 |--⑤-|
6
口口口口 |①---|
口口口口 |----|
口②②口 |----|
口①①口 |--②-|
7
口⑤②口 |①---|
口③⑥口 |----|
口⑦④口 |②-③-④-|
口①①口 |⑤-⑥-⑦-|
8
口口口口 |①---|
③口④口 |②---|
口口口口 |----|
②口口① |--③④|
9
口口口口 |①---|
口口口口 |----|
口①口② |②---|
口口②口 |----|
10
口口口② |--①-|
④③③④ |-②--|
口⑤⑤口 |③--④|
①口口口 |--⑤-|
11
口口口② |--①-|
④③③④ |-②--|
口⑤⑤口 |③--④|
①口口口 |--⑤-|
12
口口③④ |--①-|
④③口② |-②--|
①⑤⑤口 |③--④|
口口口口 |--⑤-|
13
④③口② |--①-|
口口③④ |-②--|
①⑤⑤口 |③--④|
口口口口 |--⑤-|
14
口口口② |--①-|
④③③④ |-②--|
口⑤⑤口 |③--④|
①口口口 |--⑤-|
15
口口口② |--①-|
④③③④ |-②--|
口⑤⑤口 |③--④|
①口口口 |--⑤-|
16
口口③④ |--①-|
④③口② |-②--|
①⑤⑤口 |③--④|
口口口口 |--⑤-|
17
④③口② |--①-|
口口③④ |-②--|
①口口口 |③--④|
口口口口 |----|
18
口口口② |①---|
口口口口 |----|
①口口① |----|
口口口口 |--②-|
19
口口口口 |①--②|
④④②口 |--③-|
口①⑤⑤ |--④-|
③口口口 |--⑤-|
20
①口口口 |----|
口口口口 |----|
口口口口 |----|
口口口口 |--①-|
21
口口口口 |①--②|
口②口口 |--③-|
口口①口
口口口③

口口口口
口口口口
口口⑤⑤ |--④-|
④④口口 |--⑤-|
22
口口①口 |----|
口口口口 |----|
口口口口 |----|
口口口口 |--①-|
23
口口口口 |①--②|
①口口口 |--③-|
口③③口
口口②口

口口口口
④⑤⑤④
口口口口 |--④-|
口口口口 |--⑤-|
24
口口口口 |----|
口口①口 |----|
口口口口 |----|
口口口口 |--①-|
25
口口口口 |①--②|
口口口口 |--③-|
③①④口 |--④-|
②口口口 |----|
26
口口①口 |①---|
口①口② |----|
口口口口 |----|
口口口口 |--②-|
27
口口口口 |①--②|
口口②口 |--③-|
③①口口
口口口口

口口口口
口口口④
口⑤④口 |--④-|
⑤口口口 |--⑤-|
28
口口口口 |----|
①口口口 |----|
口口口口 |----|
口口口口 |--①-|
29
④口③口 |①--②|
口④⑤口 |--③-|
口②①⑤ |--④-|
口口口口 |--⑤-|
30
口口①口 |----|
口口口口 |----|
口口口口 |----|
口口口口 |--①-|
31
口口口口 |①--②|
⑤②①⑤ |--③-|
口④④口 |--④-|
口③口口 |--⑤-|
32
口口口口 |----|
口口口口 |--①-|
口口口口 |----|
①②②① |--②-|
33
口口口口 |①---|
②①③④ |②---|
④③①② |③---|
口口口口 |④---|
34
①①①① |①---|
口口口口 |----|
口口口口
口口口口

口口口②
口口口口
口口口口 |----|
口口口口 |--②-|
35
口口①口 |①--②|
②④③口 |--③-|
口口口口 |--④-|
口口⑤口 |--⑤-|
36
口口口② |①--②|
③口①③ |--③-|
口①口口 |----|
②④④口 |--④-|
37
②口口口 |①--②|
口①口口 |--③-|
③口①③ |----|
口口口② |----|
38
口①①② |①---|
口①①口 |----|
口口口口 |----|
口口口口 |--②-|
39
口口①口 |①--②|
②④口口 |--③-|
口口③口 |--④-|
口口⑤口 |--⑤-|
40
②口口② |①--②|
口③③口 |--③-|
①口口① |----|
口④口口 |--④-|
41
③③③③ |①--②|
②口口② |--③-|
口口①口
口口口口

口口口口
口口口口
口⑤⑤口 |----|
口④④口 |④-⑤-|
42
口④③口 |①-②③|
①②口① |-④-⑤|
口口⑤口
口口口口

口口口口
口⑦⑧⑥
口口口口 |--⑥-|
口口口口 |⑦-⑧-|
43
口口口口 |①-②③|
口口口口 |-④-⑤|
①④②口
⑤口③口

口口口口
口口口口
口⑦⑦口 |----|
口⑥⑥口 |⑥-⑦-|
44
口④③口 |①-②③|
①②口① |-④-⑤|
口口⑤口
口口口口

口口口口
口⑦⑧⑥
口口口口 |--⑥-|
口口口口 |⑦-⑧-|
45
①⑤⑤口 |①-②③|
口口口③ |-④-⑤|
口④④②
口口口口

口口口口
口口口口
口⑦⑦口 |----|
口⑥⑥口 |⑥-⑦-|
46
②④口③ |①-②③|
⑦①①⑧ |-④-⑤|
⑧口⑤⑦ |--⑥-|
口⑥口口 |⑦-⑧-|
47
口⑤口① |①-②③|
口口②口 |-④-⑤|
口③口④
①口口口

口口⑧口
口⑥⑦口
口口口口 |--⑥-|
口口口口 |⑦-⑧-|
48
口口口口 |①-②③|
④口口口 |--④-|
①③②口
口口口口

口口⑧口
口⑥⑦⑤
口⑨口口 |⑤-⑥⑦|
口口口口 |-⑧-⑨|
49
口口口口 |--①-|
口口口口 |-②--|
口口①①
口口②②

口口口口
口口口口
④④⑤⑤ |③--④|
③③口口 |--⑤-|
50
口⑨⑨口 |①②-③|
⑦⑤①③ |④-⑤⑥|
口⑩⑩口 |-⑦⑧-|
④②⑥⑧ |⑨-⑩-|
51
口口口② |--①-|
④③③④ |-②--|
口⑤⑤口 |③--④|
①口口口 |--⑤-|
52
口口口② |--①-|
④③③④ |-②--|
口⑤⑤口 |③--④|
①口口口 |--⑤-|
53
口口③④ |--①-|
④③口② |-②--|
①⑤⑤口 |③--④|
口口口口 |--⑤-|
54
④③口② |--①-|
口口③④ |-②--|
①⑤⑤口 |③--④|
口口口口 |--⑤-|
55
口口口② |--①-|
④③③④ |-②--|
口⑤⑤口 |③--④|
①口口口 |--⑤-|
56
口口口② |--①-|
④③③④ |-②--|
口⑤⑤口 |③--④|
①口口口 |--⑤-|
57
口口③④ |--①-|
④③口② |-②--|
①⑤⑤口 |③--④|
口口口口 |--⑤-|
58
④③口② |--①-|
口口③④ |-②--|
①口口口 |③--④|
口口口口 |----|
59
口口口口 |①---|
口口口口 |----|
口口口口 |----|
①①①① |----|


不確定度: 0

最終更新:2013年03月27日 20:15