RIP=RELEASE
minato(流星P)

EXTREME

Level: 8
BPM: 115
Notes: 685

1
口口口口 |----|
口口口口 |----|
口口口口 |----|
口口口口 |----|
2
④口②④ |--①-|
口③③② |-②--|
①①口口 |③--④|
⑤口口⑤ |--⑤-|
3
④口②④ |--①-|
口③③② |-②--|
①①口口 |③--④|
⑤口口⑤ |--⑤-|
4
口口口口 |--①-|
口口口② |-②--|
口①②口
口①口口

④口口④
口口口口
③口口③ |③--④|
口⑤⑤口 |--⑤-|
5
口口口口 |--①-|
口口②② |-②--|
口①口口
①口口口

④口⑤④
口口⑥口
③口⑦③ |③--④|
口口口口 |---⑤⑥⑦|
6
口口口口 |①---|
口①口① |----|
口口口口
口口①口

口口口口
口②口口
口②口口 |----|
口口口口 |--②-|
7
口口口口 |①---|
口口口口 |--②③|
口③①口
口②①口

口口④④
⑤口⑦⑦
⑧口⑥⑥ |④-⑤-⑥-|
口口⑨⑨ |⑦-⑧-⑨-|
8
①③口④ |①---|
口①口口 |②---|
口口口口 |----|
②口口口 |--③④|
9
口口口口 |①---|
②③④口 |---②③④|
口口①口
口口口口

口口口口
口口口口
口⑥⑥口 |⑤---|
口⑤口口 |⑥---|
10
①①①① |①-②-|
③②③口 |-③--|
口口口口
②③②口

口口口口
口口口口
④⑤④⑤ |④--⑤|
口⑥⑥口 |--⑥-|
11
口①②① |--①-|
④③④③ |-②--|
口②①② |③--④|
口⑤⑤口 |--⑤-|
12
②口口口 |--①-|
口②口① |-②--|
②口①口
口口口①

口④口④
口口③口
⑤③⑤口 |③--④|
口口口口 |--⑤-|
13
口口口② |--①-|
①口②口 |-②--|
口①口②
①口口口

④口④口
口③口口
口⑤③⑤ |③--④|
口口口口 |--⑤-|
14
口口口口 |--①-|
②①②口 |-②--|
口口口口
①②①口

口口口口
口口口口
③④③④ |③--④|
口⑤⑤口 |--⑤-|
15
口①②① |--①-|
④③④③ |-②--|
口②①② |③--④|
口⑤⑤口 |--⑤-|
16
②口口口 |--①-|
口②口① |-②--|
②口①口
口口口①

口④口④
口口③口
⑤③⑤口 |③--④|
口口口口 |--⑤-|
17
④口④② |--①-|
①③②口 |-②--|
口①③② |③--④|
①口口口 |----|
18
口⑤口⑤ |①---|
口口①口 |②---|
口①口口 |③---|
④③②① |④-⑤-|
19
口口口口 |①--②|
①②①② |--③-|
③④③④ |--④-|
⑤⑤口口 |--⑤-|
20
⑥⑤⑥⑤ |①-②-|
口口④口 |③-④-|
②③口⑤ |--⑤-|
口口口① |--⑥-|
21
口口口口 |①--②|
②①②① |--③-|
④③④③ |--④-|
口口⑤⑤ |--⑤-|
22
口口④口 |①-②-|
①④口④ |③-④-|
口③④口
②口口口

口口口口
⑤口口口
口口口口 |----|
口口⑤口 |--⑤-|
23
口①口口 |①--②|
口②②③ |--③-|
③口口①
口口口③

口口口口
④⑤⑤口
口⑤⑤④ |--④-|
④口口口 |--⑤-|
24
口②①口 |①--②|
口口口口 |--③-|
①口口②
③口口③

④口口④
口口口⑤
口口口⑤ |-④--|
口口口口 |--⑤-|
25
口口口口 |①--②|
②口①口 |--③-|
②③①口
③口③口

口④口④
口口④口
口口口口 |--④-|
口口口口 |----|
26
口④口④ |①-②-|
①口口① |③-④-|
口③口④
②口口口

口口口口
⑤⑤口口
口口口口 |----|
口口口口 |--⑤-|
27
口口③③ |①--②|
口口①① |--③-|
③口口口
③②②口

④④口口
口⑤⑤口
口口口④ |--④-|
口口口④ |--⑤-|
28
口④口口 |①-②-|
口口口口 |③-④-|
③口①口
口②口口

⑥口⑤口
口⑤口⑤
口口⑤⑥ |--⑤-|
口口口口 |--⑥-|
29
口③④① |①--②|
③⑤⑤④ |--③-|
①④③口 |--④-|
④②②③ |--⑤-|
30
⑤④口④ |①-②-|
①口⑤口 |③-④-|
口④③④ |----|
口②口口 |--⑤-|
31
口口口② |①--②|
①②口口 |--③-|
口口①③
口③口口

⑤口口⑤
⑤口④⑤
口④口口 |--④-|
口口口口 |--⑤-|
32
口口口口 |①---|
口口口口 |--②-|
口口①口
②②②②

口口口口
口③③口
口③③口 |----|
口口口口 |--③-|
33
④①②③ |①---|
②③④① |②---|
①④③② |③---|
③②①④ |④---|
34
口①①④ |①--②|
②④③口 |--③-|
②口口③ |----|
口①①口 |--④-|
35
口口①口 |①--②|
①口④③ |--③-|
④③②⑤ |--④-|
②⑤口口 |--⑤-|
36
②口口② |①--②|
③②②③ |--③-|
口①①口 |----|
④口④口 |--④-|
37
口②②口 |①--②|
②③③② |--③-|
口口口口
口①口①

口口口口
口口口口
口④⑤口 |④--⑤|
④⑥⑥⑤ |--⑥-|
38
①口①口 |①--②|
口①③① |--③-|
口口口③
②口口口

口口口④
口④口口
口口口口 |----|
口口口口 |--④-|
39
口口①口 |①--②|
①口④③ |--③-|
④③②⑤ |--④-|
②⑤口口 |--⑤-|
40
②②②② |①--②|
口③③口 |--③-|
口③③口
①口口①

口口口口
口口口口
口口口口 |----|
④④④④ |--④-|
41
③③③③ |①--②|
①②①② |--③-|
②①②①
口口口口

口口口口
口⑦⑥口
口口⑧口 |-④--|
④⑤口④ |⑤⑥⑦⑧|
42
①④④① |①-②③|
口口口③ |-④-⑤|
①口口①
②⑤⑤口

口口口⑥
口⑦⑧⑧
口口⑥口 |--⑥-|
⑦口口口 |⑦-⑧-|
43
④④④④ |①-②③|
①⑧⑦口 |-④-⑤|
①口⑨② |----|
⑤⑥③⑤ |⑥⑦⑧⑨|
44
①④④① |①-②③|
口口口③ |-④-⑤|
①口口①
②⑤⑤口

⑧口口⑥
口口⑦口
⑧口⑦⑥ |--⑥-|
口口口口 |⑦-⑧-|
45
⑤⑤⑤⑤ |①-②③|
②①口③ |-④-⑤|
口①口口
④②③④

口口口口
口⑧⑦口
口口⑨口 |----|
口⑥口口 |⑥⑦⑧⑨|
46
①③③① |①-②③|
④口⑤④ |-④-⑤|
①口口①
②⑤口②

⑧口口口
口⑦口口
口⑥⑦口 |--⑥-|
口口⑥⑧ |⑦-⑧-|
47
⑤⑤①① |①-②③|
②④②① |-④-⑤|
①③④③
①①口口

口口⑦⑦
口口口口
⑥口口⑧ |--⑥-|
口口口口 |⑦-⑧-|
48
口口口口 |①-②③|
①口④口 |--④-|
口③口口
①口②②

口⑨⑨⑤
⑥⑥口口
口⑧口⑤ |⑤-⑥⑦|
口口⑦口 |-⑧-⑨|
49
①口口口 |--①-|
口口口① |-②--|
②口①②
口②口口

口口口口
⑤③③④
口④口口 |③--④|
④⑤③⑤ |--⑤-|
50
③①③① |①②-③|
口⑤口⑤ |④-⑤⑥|
②④②④
⑥口⑥口

⑨⑨⑨⑨
⑦口⑦口
⑩⑩⑩⑩ |-⑦⑧-|
口⑧口⑧ |⑨-⑩-|
51
口口口口 |--①-|
②①②口 |-②--|
口口口口
①②①口

口口口口
口口口口
③④③④ |③--④|
口⑤⑤口 |--⑤-|
52
口①②① |--①-|
④③④③ |-②--|
口②①② |③--④|
口⑤⑤口 |--⑤-|
53
②口口口 |--①-|
口②口① |-②--|
②口①口
口口口①

口④口④
口口③口
⑤③⑤口 |③--④|
口口口口 |--⑤-|
54
口口口② |--①-|
①口②口 |-②--|
口①口②
①口口口

④口④口
口③口口
口⑤③⑤ |③--④|
口口口口 |--⑤-|
55
②②口口 |--①-|
口口口口 |-②--|
口口口口
①①口口

口口口口
③④口口
④③口口 |③--④|
⑤⑤口口 |--⑤-|
56
口口②② |--①-|
口口口口 |-②--|
口口口口
口口①①

口口口口
口口③④
口口④③ |③--④|
口口⑤⑤ |--⑤-|
57
②③④② |--①-|
口①①口 |-②--|
②⑤⑤② |③--④|
④⑤⑤③ |--⑤-|
58
②④③② |--①-|
口①①口 |-②--|
②口口② |③--④|
③口口④ |----|
59
口口口口 |①---|
口①口口 |----|
①口①口 |----|
口①口口 |----|


不確定度: 0

最終更新:2013年03月27日 20:14