メランコリック
Junky

BASIC

Level: 3
BPM: 140
Notes: 151

1
口口口口 |----|
口口口口 |----|
口口口口 |----|
口口口口 |----|
2
口口口口 |①---|
口口口口 |----|
口口口口 |----|
口①①口 |----|
3
口口口口 |----|
口口口口 |----|
口口口口 |----|
口口口口 |----|
4
口口口口 |①---|
口口口口 |----|
口①①口 |----|
口口口口 |----|
5
口口口口 |----|
口口口口 |----|
口口口口 |----|
口口口口 |----|
6
口口口口 |①---|
口①①口 |----|
口口口口 |----|
口口口口 |----|
7
口口口口 |----|
口口口口 |----|
口口口口 |----|
口口口口 |----|
8
口口口口 |①---|
口口口口 |----|
口②①口 |②---|
口口口口 |----|
9
②口口② |①---|
①口口① |----|
口口口口 |②---|
口口口口 |----|
10
口②①口 |①---|
口口口口 |----|
口口口口 |②---|
口口口口 |----|
11
口口口口 |①---|
②①口口 |----|
口口口口 |②---|
口口口口 |----|
12
口①②口 |①---|
口口口口 |----|
口口口口 |②---|
口口口口 |----|
13
口口口口 |①---|
口口①② |----|
口口口口 |②---|
口口口口 |----|
14
口口口口 |①---|
口②①口 |----|
口口口口 |②---|
口口口口 |----|
15
口口口口 |①---|
口口口口 |----|
②①口口 |②---|
口口口口 |----|
16
口口口口 |①---|
口①②口 |----|
口口口口 |②---|
口口口口 |----|
17
口口口口 |①---|
口口口口 |----|
口口①② |②---|
口口口口 |----|
18
口口口口 |①---|
口口①口 |----|
口口口口 |----|
口口口口 |----|
19
口口口口 |①---|
口口口口 |----|
口①口口 |----|
口口口口 |----|
20
口口口口 |①---|
口口口口 |----|
口口②口 |②---|
口口①口 |----|
21
口口口口 |①---|
口口口① |----|
口口口口 |----|
口口口口 |----|
22
口口口口 |①---|
口①口口 |----|
口口口口 |----|
口口口口 |----|
23
口口口口 |①---|
口口口口 |----|
口口①口 |----|
口口口口 |----|
24
口口口口 |①---|
口口口口 |----|
口②口口 |②---|
口①口口 |----|
25
口口口口 |①---|
①口口口 |----|
口口口口 |----|
口口口口 |----|
26
口口①口 |①---|
口口口口 |----|
口口口口 |----|
口口口口 |----|
27
口口口口 |①---|
口①口口 |----|
口口口口 |----|
口口口口 |----|
28
口口口口 |①---|
口口②口 |----|
口口①口 |②---|
口口口口 |----|
29
口口口① |①---|
口口口口 |----|
口口口口 |----|
口口口口 |----|
30
口①口口 |①---|
口口口口 |----|
口口口口 |----|
口口口口 |----|
31
口口口口 |①---|
口口①口 |----|
口口口口 |----|
口口口口 |----|
32
口口口口 |①---|
口②口口 |----|
口①口口 |②---|
口口口口 |----|
33
①口口① |①---|
口口口口 |----|
口口口口 |----|
口口口口 |----|
34
口口口口 |----|
口口口口 |----|
口口口口 |----|
口口口口 |----|
35
口口口口 |①---|
口口口口 |②---|
①②③口 |③---|
口口口口 |----|
36
口口口口 |①---|
口③②① |②---|
口口口口 |③---|
口口口口 |----|
37
口口口口 |①---|
口口口口 |----|
口①①口 |②---|
口②②口 |----|
38
口口口口 |①---|
口口口口 |----|
口口口口 |----|
①口口① |----|
39
口口口口 |①---|
口口口口 |②---|
①②③口 |③---|
口口口口 |----|
40
口口口口 |①---|
口③②① |②---|
口口口口 |③---|
口口口口 |----|
41
口口口口 |①---|
口口口口 |----|
口①①口 |②---|
口②②口 |----|
42
口口口口 |①---|
①①①① |----|
口口口口 |----|
口口口口 |----|
43
口口④口 |①---|
口口③口 |②---|
①②口口 |③---|
口口口口 |④---|
44
口①口口 |①---|
口口口口 |----|
口②口口 |②---|
口口口口 |----|
45
口④口口 |①---|
口③口口 |②---|
口口②① |③---|
口口口口 |④---|
46
口口①口 |①---|
口口口口 |----|
口口②口 |②---|
口口口口 |----|
47
口口④口 |①---|
口口③口 |②---|
①②口口 |③---|
口口口口 |④---|
48
口①口口 |①---|
口口口口 |----|
口②口口 |②---|
口口口口 |----|
49
口口口口 |①---|
口口口口 |----|
②口口② |②---|
口①①口 |----|
50
口口口口 |①---|
②口口② |----|
口①①口 |②---|
口口口口 |----|
51
口口④口 |①---|
口口③口 |②---|
①②口口 |③---|
口口口口 |④---|
52
口①口口 |①---|
口口口口 |----|
口②口口 |②---|
口口口口 |----|
53
口④口口 |①---|
口③口口 |②---|
口口②① |③---|
口口口口 |④---|
54
口口①口 |①---|
口口口口 |----|
口口②口 |②---|
口口口口 |----|
55
口口④口 |①---|
口口③口 |②---|
①②口口 |③---|
口口口口 |④---|
56
口①口口 |①---|
口口口口 |----|
口②口口 |②---|
口口口口 |----|
57
口口口口 |①---|
口口口口 |----|
②口口② |②---|
口①①口 |----|
58
口口口口 |①---|
②口口② |----|
口①①口 |②---|
口口口口 |----|
59
口口口口 |①---|
口口口口 |----|
口口口口 |②---|
②口口① |----|
60
口口口口 |①---|
口④③口 |②---|
口①②口 |③---|
口口口口 |④---|
61
口口口口 |①---|
口口口口 |----|
口①口② |②---|
口口口口 |----|
62
口口口口 |①---|
口口口口 |----|
口口口口 |②---|
②口①口 |----|
63
口口口口 |①---|
口口口口 |----|
口②口口 |②---|
口①口口 |----|
64
口口口口 |①---|
口口口口 |----|
口口②口 |②---|
口口①口 |----|
65
口口口口 |①---|
口口口口 |②---|
①②③④ |③---|
口口口口 |④---|
66
口口口口 |①---|
④③②① |②---|
口口口口 |③---|
口口口口 |④---|
67
口①①口 |①---|
口口口口 |----|
口口口口 |----|
口口口口 |----|


不確定度: 0

最終更新:2013年03月27日 20:14