メランコリック
Junky

ADVANCED

Level: 6
BPM: 140
Notes: 364

1
口口口口 |----|
口口口口 |----|
口口口口 |----|
口口口口 |----|
2
口口口口 |①---|
②⑥⑤② |②---|
①③④① |③-④-|
口口口口 |⑤-⑥-|
3
②口③① |--①-|
口口口口 |--②-|
口④口口 |③---|
口口⑤口 |④-⑤-|
4
口口口口 |①---|
②⑥⑤② |②---|
①③④① |③-④-|
口口口口 |⑤-⑥-|
5
口口④口 |--①-|
③口口口 |②-③-|
口②口口 |----|
口口①口 |④---|
6
口口口口 |①-②-|
口口口口 |③-④-|
①③②④
口口口口

口口口口
口口口口
⑦口⑧口 |⑤-⑥-|
口⑥⑤口 |⑦-⑧-|
7
口③口② |--①-|
①口④口 |--②-|
口口⑤口 |③---|
口口口口 |④-⑤-|
8
③口口② |①---|
口口口口 |②---|
口口口口 |③---|
①口口④ |④---|
9
口①①口 |①---|
口口口口 |--②-|
口②②口 |③---|
口③③口 |----|
10
口口口口 |①---|
①②①② |②---|
③④③④ |③---|
口口口口 |④---|
11
口口口口 |①---|
口口①口 |②---|
口口②口 |③---|
口③④口 |④---|
12
口口口口 |①---|
②①②① |②---|
④③④③ |③---|
口口口口 |④---|
13
口口口口 |①---|
口①口口 |②---|
口②口口 |③---|
口④③口 |④---|
14
口口口口 |①---|
①②①② |②---|
③④③④ |③---|
口口口口 |④---|
15
口口口口 |①---|
口口①口 |②---|
口口②口 |③---|
口③④口 |④---|
16
口口口口 |①---|
①口④口 |②---|
口②口③ |③---|
口口口口 |④---|
17
①口口① |①---|
口③④⑤ |----|
②口口② |②-③-|
口口口口 |④-⑤-|
18
①口口③ |----|
口口口口 |①---|
口口口口 |②---|
②口口口 |③---|
19
口口口口 |①---|
口②口口 |②-③-|
口口③口 |----|
④口口① |--④-|
20
口口口⑤ |①---|
口口④口 |②---|
③口口② |③---|
口①口口 |④-⑤-|
21
口口口口 |----|
口口口口 |----|
③②①口 |--①-|
口口口口 |②-③-|
22
③口口② |----|
口口口口 |①---|
口口口口 |②---|
口口口① |③---|
23
口口口口 |①---|
口口②口 |②-③-|
口③口口 |----|
①口口④ |--④-|
24
口口口口 |①---|
口④口口 |②---|
②口⑤③ |③---|
口口①口 |④-⑤-|
25
口口口口 |----|
口①②③ |----|
口口口口 |--①-|
口口口口 |②-③-|
26
①口口③ |----|
口口口口 |①---|
口口口口 |②---|
②口口口 |③---|
27
口口口口 |①---|
口②口口 |②-③-|
口口③口 |----|
④口口① |--④-|
28
口口口⑤ |①---|
口口④口 |②---|
③口口② |③---|
口①口口 |④-⑤-|
29
口口口口 |----|
口口口口 |----|
③②①口 |--①-|
口口口口 |②-③-|
30
③口口② |----|
口口口口 |①---|
口口口口 |②---|
口口口① |③---|
31
口口口口 |①---|
口口②口 |②-③-|
口③口口 |----|
①口口④ |--④-|
32
③②②③ |①---|
口口口口 |②---|
口④④口 |③---|
①⑤⑤口 |④-⑤-|
33
口口口口 |----|
口口口口 |----|
口口口口 |----|
口口口口 |----|
34
口口口口 |----|
口③口口 |----|
口口②口 |--①-|
口①口口 |②-③-|
35
口③②① |①---|
口③②① |②---|
口口口口 |③---|
口口口口 |----|
36
口口口口 |①---|
口口口口 |②---|
①②③口 |③---|
①②③口 |----|
37
口口口口 |①---|
口①①口 |--②-|
②口口④ |③---|
口③口口 |--④-|
38
口口口口 |①---|
口口口口 |----|
③口口② |②---|
口口①口 |③---|
39
口③②① |①---|
口③②① |②---|
口口口口 |③---|
口口口口 |----|
40
口口口口 |①---|
口口口口 |②---|
①②③口 |③---|
①②③口 |----|
41
口口口口 |①--②|
口③③口 |--③-|
口②②口
①口口①

口口口口
④口口④
口⑤⑤口 |④---|
口口口口 |--⑤-|
42
①①①① |①---|
口②③口 |----|
口③②口 |②---|
口口口口 |③---|
43
口口口口 |①---|
②⑥⑤② |②---|
①③④① |③-④-|
口口口口 |⑤-⑥-|
44
②口③① |--①-|
口口口口 |--②-|
口④口口 |③---|
口口⑤口 |④-⑤-|
45
口口口口 |①---|
②⑥⑤② |②---|
①③④① |③-④-|
口口口口 |⑤-⑥-|
46
口口④口 |--①-|
③口口口 |②-③-|
口②口口 |----|
口口①口 |④---|
47
口口口口 |①-②-|
口口口口 |③-④-|
①③②④
口口口口

口口口口
口口口口
⑦口⑧口 |⑤-⑥-|
口⑥⑤口 |⑦-⑧-|
48
口③口② |--①-|
①口④口 |--②-|
口口⑤口 |③---|
口口口口 |④-⑤-|
49
③口口② |①---|
③口口② |②---|
①口口④ |③---|
①口口④ |④---|
50
口①①口 |①---|
口口口口 |--②-|
口②②口 |③---|
口③③口 |----|
51
口口口口 |①---|
②⑥⑤② |②---|
①③④① |③-④-|
口口口口 |⑤-⑥-|
52
②口③① |--①-|
口口口口 |--②-|
口④口口 |③---|
口口⑤口 |④-⑤-|
53
口口口口 |①---|
②⑥⑤② |②---|
①③④① |③-④-|
口口口口 |⑤-⑥-|
54
口口④口 |--①-|
③口口口 |②-③-|
口②口口 |----|
口口①口 |④---|
55
口口口口 |①---|
①口口② |②---|
①⑤⑥② |③-④-|
口③④口 |⑤-⑥-|
56
口③口② |--①-|
①口④口 |--②-|
口口⑤口 |③---|
口口口口 |④-⑤-|
57
③口口② |①---|
③口口② |②---|
①口口④ |③---|
①口口④ |④---|
58
口①①口 |①---|
口口口口 |--②-|
口②②口 |③---|
口③③口 |----|
59
口口口口 |①---|
①②①② |②---|
③④③④ |③---|
口口口口 |④---|
60
口口口口 |①---|
口口①口 |②---|
口口②口 |③---|
口③④口 |④---|
61
口口口口 |①---|
②①②① |②---|
④③④③ |③---|
口口口口 |④---|
62
口口口口 |①---|
口①口口 |②---|
口②口口 |③---|
口口③口 |----|
63
口口口口 |①---|
①②④③ |②---|
①②④③ |③---|
口口口口 |④---|
64
口口口口 |①---|
口口口口 |②---|
③口口③ |③---|
②①①② |----|
65
口口口口 |①---|
口①③口 |②---|
口④②口 |③---|
口口口口 |④---|
66
口口口口 |①---|
④口口④ |②---|
口③③口 |③---|
②口口① |④---|
67
口①①口 |①---|
口①①口 |----|
口口口口 |----|
口口口口 |----|


不確定度: 0

最終更新:2013年03月27日 20:13