メランコリック
Junky

EXTREME

Level: 8
BPM: 140
Notes: 686

1
口口口口 |----|
口口口口 |----|
口口口口 |----|
口口口口 |----|
2
口①②口 |①---|
①口口② |②---|
②口口①
口②①口

口口口⑤
⑥③口口
口④④⑥ |③-④-|
⑤口口③ |⑤-⑥-|
3
①口②口 |--①-|
口口口口 |--②-|
①口②口
口口口口

④口口④
口③③口
口口口口 |③---|
⑤口口⑤ |④-⑤-|
4
口②①口 |①---|
②口口① |②---|
①口口②
口①②口

⑤口口口
口口③⑥
⑥④④口 |③-④-|
③口口⑤ |⑤-⑥-|
5
口口口口 |--①-|
③④③口 |②-③-|
口②口② |----|
①⑤①口 |④-⑤-|
6
①③口口 |①-②-|
口口④② |③-④-|
②④口口
口口③①

⑧口口⑦
⑥⑤口口
口口⑤⑥ |⑤-⑥-|
⑦口口⑧ |⑦-⑧-|
7
口②口口 |--①-|
口口口② |--②-|
口①①口
口口口口

口口③口
③口口口
口④④口 |③---|
口⑤⑤口 |④-⑤-|
8
口口口口 |①---|
口①②口 |②---|
①口口②
①口口②

口③③口
口口口③
④口口口 |③---|
口④④口 |④---|
9
①口口① |①---|
口口口口 |--②-|
②口口②
②口口②

④口口⑤
口③③口
口③③口 |③-④-|
口口口口 |⑤---|
10
口②口口 |①---|
口⑤④② |②---|
①③⑥口 |③-④-|
口口①口 |⑤-⑥-|
11
①④口② |--①-|
③⑤④③ |--②-|
①口⑤② |③---|
口口口口 |④-⑤-|
12
口口②口 |①---|
②口口口 |②---|
口口口①
口①口口

口口口口
口⑤④口
口口③口 |③-④-|
口⑥口口 |⑤-⑥-|
13
口口⑦⑦ |①-②-|
⑥口口② |③-④-|
口③口口 |⑤-⑥-|
⑤口④① |--⑦-|
14
口②口口 |①---|
口⑤④② |②---|
①③⑥口 |③-④-|
口口①口 |⑤-⑥-|
15
①④口② |--①-|
③⑤④③ |--②-|
①口⑤② |③---|
口口口口 |④-⑤-|
16
④口口④ |①---|
②口口② |②---|
③口③口 |③---|
口①口① |④---|
17
口①①口 |①---|
口⑥口口 |--②-|
②⑤口② |③-④-|
③④口③ |⑤-⑥-|
18
③口口① |----|
③口口① |①---|
口口口口 |②---|
②②口口 |③---|
19
口②口口 |①---|
口③②口 |②-③-|
④口③口 |----|
口④①① |--④-|
20
④口口⑤ |①---|
④②②⑤ |②---|
口口口① |③---|
③口①③ |④-⑤-|
21
口口口口 |----|
口口③口 |----|
口口②口 |--①-|
口口①口 |②-③-|
22
③口口口 |----|
③口口口 |①---|
口口口② |②---|
①①口② |③---|
23
口口①① |①---|
口②口口 |②-③-|
④③②口 |----|
口④③口 |--④-|
24
口②②口 |①---|
口口口口 |②---|
口口口①
口口①口

口口口口
⑤口口⑥
⑤③③⑥ |③-④-|
口④④口 |⑤-⑥-|
25
口口③口 |----|
口②口口 |----|
①口口口 |--①-|
口口口口 |②-③-|
26
口口口口 |①---|
②口④③ |②---|
口口口口 |③---|
①②③④ |④---|
27
口口口口 |①---|
口①口口 |②-③-|
口②⑥③ |④---|
①②④⑤ |⑤-⑥-|
28
口口口口 |①---|
②①口口 |②---|
口口口口
①②口口

口口口口
口⑤口③
口④口口 |③---|
口口③④ |④-⑤-|
29
口口⑥口 |①---|
口⑤口口 |②---|
④口口口 |③-④-|
①②③⑤ |⑤-⑥-|
30
口口口口 |①---|
②口④③ |②---|
口口口口 |③---|
①②③④ |④---|
31
口口口口 |①---|
口①口口 |②-③-|
口②口③
①②口口

口口口口
⑥口口口
口口口口 |④---|
⑥口④⑤ |⑤-⑥-|
32
口②口② |①---|
口口口口 |②---|
口①口①
口口口口

口口口口
⑤③口④
③④③口 |③---|
口③⑤口 |④-⑤-|
33
①①①① |①---|
口口口口 |----|
口口口口
口口口口

口②口口
口口②口
口口口② |----|
口口口口 |②---|
34
口口①口 |①---|
口①口口 |--②-|
①②②口
口口口口

口口口口
口⑥口⑤
口口口口 |③-④-|
口③③④ |⑤-⑥-|
35
口口口口 |①②③④|
口口口口 |⑤⑥⑦⑧|
③⑦②⑥
①⑤④⑧

口口口⑪
⑨⑩口⑪
口口⑫口 |⑨⑩⑪-|
口⑬口口 |--⑫⑬|
36
口④①口 |①-②③|
口口口口 |④-⑤⑥|
⑥口口③
②口口⑤

⑪口口⑪
口⑧⑩口
口⑨⑦⑫ |⑦⑧⑨⑩|
口口⑬口 |⑪-⑫⑬|
37
口口口口 |①-②-|
①⑤⑧④ |③-④-|
⑦③②⑥ |⑤-⑥-|
①⑤⑧④ |⑦-⑧-|
38
口口口口 |①-②-|
①口口口 |③-④⑤|
⑤③②④
①口口口

口口口口
口⑨⑧口
口口口口 |⑥⑦⑧⑨|
⑩⑦⑥⑩ |⑩---|
39
①口口① |①-②③|
⑤口口④ |④-⑤-|
⑤②口④
口口③口

⑨口口⑨
口⑥⑥口
口口⑦口 |⑥-⑦⑧|
⑩⑧口⑩ |⑨-⑩-|
40
口①①口 |①-②③|
口口口④ |④-⑤⑥|
口②⑤④
口⑥③口

⑩口⑧⑩
⑦⑨口口
⑦⑪口口 |⑦-⑧⑨|
口口⑫口 |⑩-⑪⑫|
41
口②口③ |①--②|
③口②口 |--③-|
口口口口
①口口①

口口口口
口口口口
口④④口 |④---|
⑤⑤⑤⑤ |--⑤-|
42
⑤①①⑥ |①-②-|
①④④① |③-④-|
③②②③ |⑤---|
⑤口口⑥ |⑥---|
43
口①②口 |①---|
①口口② |②---|
②口口①
口②①口

口口口⑤
⑥③口口
口④④⑥ |③-④-|
⑤口口③ |⑤-⑥-|
44
①口②口 |--①-|
口口口口 |--②-|
①口②口
口口口口

④口口④
口③③口
口口口口 |③---|
⑤口口⑤ |④-⑤-|
45
口②①口 |①---|
②口口① |②---|
①口口②
口①②口

⑤口口口
口口③⑥
⑥④④口 |③-④-|
③口口⑤ |⑤-⑥-|
46
口口口口 |--①-|
③④③口 |②-③-|
口②口② |----|
①⑤①口 |④-⑤-|
47
①③口口 |①-②-|
口口④② |③-④-|
②④口口
口口③①

⑧口口⑦
⑥⑤口口
口口⑤⑥ |⑤-⑥-|
⑦口口⑧ |⑦-⑧-|
48
口②口口 |--①-|
口口口② |--②-|
口①①口
口口口口

口口③口
③口口口
口④④口 |③---|
口⑤⑤口 |④-⑤-|
49
口口口口 |①---|
口①②口 |②---|
①口口②
①口口②

口③③口
口口口③
④口口口 |③---|
口④④口 |④---|
50
①口口① |①---|
口③④口 |--②-|
②④③② |③---|
②口口② |④---|
51
口①②口 |①---|
①口口② |②---|
②口口①
口②①口

口口口⑤
⑥③口口
口④④⑥ |③-④-|
⑤口口③ |⑤-⑥-|
52
①口②口 |--①-|
口口口口 |--②-|
①口②口
口口口口

④口口④
口③③口
口口口口 |③---|
⑤口口⑤ |④-⑤-|
53
口②①口 |①---|
②口口① |②---|
①口口②
口①②口

⑤口口口
口口③⑥
⑥④④口 |③-④-|
③口口⑤ |⑤-⑥-|
54
口口口口 |--①-|
③口③口 |②-③-|
口②口②
①口①口

口口口口
口④口口
口口口口 |----|
⑤口口口 |④-⑤-|
55
①口口② |①---|
①口口② |②---|
口②①口
口②①口

口④⑤口
⑥④⑤⑥
③口口③ |③-④-|
口口口口 |⑤-⑥-|
56
①口口② |--①-|
口③③口 |--②-|
④口口⑤ |③---|
口④⑤口 |④-⑤-|
57
口①①③ |①---|
①③③② |②---|
④②②口 |③---|
口④④口 |④---|
58
口①①口 |①---|
口③③口 |--②-|
②③③② |③---|
②口口② |----|
59
口②口口 |①---|
口⑤④② |②---|
①③⑥口 |③-④-|
口口①口 |⑤-⑥-|
60
①口口② |--①-|
口口口口 |--②-|
①口口②
口口口口

口③口口
口④⑤⑥
⑥⑤④口 |③-④-|
口口③口 |⑤-⑥-|
61
口⑥口⑦ |①-②-|
②⑤口⑤ |③-④-|
口口④口 |⑤-⑥-|
③①口① |--⑦-|
62
①口④口 |①-②-|
①③口③ |③-④-|
口口②口 |----|
口口口口 |----|
63
口口口④ |①-②-|
口口③口 |③-④-|
口②口口
①口口口

口口口口
⑤口口⑥
⑩口口口 |⑤-⑥-|
⑦⑧⑨口 |⑦⑧⑨⑩|
64
⑥⑦⑧口 |①②③④|
③④⑤口 |⑤⑥⑦⑧|
口①②口
口口口口

口口口⑨
⑩口口口
口口口口 |⑨---|
口口口口 |--⑩-|
65
⑥口②⑤ |①-②-|
口④口口 |③-④-|
口口口③ |⑤-⑥-|
⑦①口⑧ |⑦-⑧-|
66
⑤口口⑥ |①-②-|
①⑥⑤② |③-④-|
③⑤⑥④ |⑤---|
⑥口口⑤ |⑥---|
67
口口口口 |①---|
①口口① |----|
①口口① |----|
口①①口 |----|


不確定度: 0

最終更新:2013年03月27日 20:12