右肩の蝶
のりぴー

BASIC

Level: 3
BPM: 140
Notes: 208

1
口口口口 |------|
口口口口 |------|
口口口口 |------|
口口口口 |------|
2
口口口口 |①-----|
口口口口 |------|
口①口口 |------|
口口口口 |------|
3
口口口口 |①-----|
口口①口 |------|
口口口口 |------|
口口口口 |------|
4
口口口口 |①-----|
口①口口 |------|
口口口口 |------|
口口口口 |------|
5
口口口口 |①-----|
口口口口 |------|
口口①口 |------|
口口口口 |------|
6
口口口口 |①-----|
口口口口 |------|
口①口口 |------|
口口口口 |------|
7
口口口口 |①-----|
口口①口 |------|
口口口口 |------|
口口口口 |------|
8
口口口口 |①-----|
口①口口 |------|
口口口口 |------|
口口口口 |------|
9
口口口口 |①-----|
口口口口 |------|
口口①口 |------|
口口口口 |------|
10
口口口口 |①-----|
①口口① |------|
口口口口 |------|
口口口口 |------|
11
口口口口 |①-----|
口口口口 |------|
①口口① |------|
口口口口 |------|
12
口口口口 |①-----|
口口口口 |------|
口①①口 |------|
口口口口 |------|
13
口口口口 |①-----|
口①①口 |------|
口口口口 |------|
口口口口 |------|
14
口口口口 |①-----|
①口口① |------|
口口口口 |------|
口口口口 |------|
15
口口口口 |①-----|
口口口口 |------|
①口口① |------|
口口口口 |------|
16
口口口口 |①-----|
口口口口 |------|
口①①口 |------|
口口口口 |------|
17
口口口口 |①-----|
口①①口 |------|
口口口口 |------|
口口口口 |------|
18
口口口口 |①-----|
口③②① |②-----|
口口口口 |③-----|
口口口口 |------|
19
口口口口 |①-----|
口口口口 |②-----|
①②③口 |③-----|
口口口口 |------|
20
口口口口 |①-----|
口③②① |②-----|
口口口口 |③-----|
口口口口 |------|
21
口口口口 |①-----|
口②③口 |②-----|
口①④口 |③-----|
口口口口 |④-----|
22
口口口口 |①-----|
口③②① |②-----|
口口口口 |③-----|
口口口口 |------|
23
口口口口 |①-----|
口口口口 |②-----|
①②③口 |③-----|
口口口口 |------|
24
口口口口 |①-----|
口③②① |②-----|
口口口口 |③-----|
口口口口 |------|
25
③口口③ |①-----|
口口②口 |②-----|
口①口口 |③-----|
口口口口 |------|
26
口①口口 |------|
口②口口 |①-----|
口③口口 |②-----|
口口口口 |③-----|
27
口口口口 |①-----|
口口口口 |②-----|
口口口口 |③-----|
口①②③ |------|
28
口口口口 |①-----|
口②②口 |------|
①口口① |②-----|
口口口口 |------|
29
①口口① |①-----|
口②②口 |------|
口口口口 |②-----|
口口口口 |------|
30
口口①口 |------|
口口②口 |①-----|
口口③口 |②-----|
口口口口 |③-----|
31
口口口口 |①-----|
口口口口 |②-----|
口口口口 |③-----|
③②①口 |------|
32
口口口口 |①-----|
口②②口 |------|
①口口① |②-----|
口口口口 |------|
33
①口口① |①-----|
口②②口 |------|
口口口口 |②-----|
口口口口 |------|
34
口口口口 |------|
口口③口 |①-----|
①②口口 |②-----|
口口口口 |③-----|
35
口口口口 |①-----|
口口口① |②-----|
口口口② |③-----|
口口③口 |------|
36
口口口口 |①-----|
口②②口 |------|
①口口① |②-----|
口口口口 |------|
37
①口口① |①-----|
口②②口 |------|
口口口口 |②-----|
口口口口 |------|
38
口口口口 |------|
口③口口 |①-----|
口口②① |②-----|
口口口口 |③-----|
39
口口口口 |①-----|
①口口口 |②-----|
②口口口 |③-----|
口③口口 |------|
40
口口口口 |①-----|
口②②口 |------|
①口口① |②-----|
口口口口 |------|
41
①口口① |①-----|
口②②口 |------|
口口口口 |②-----|
口口口口 |------|
42
口口口口 |①-----|
口口口口 |②-----|
口③④口 |③-----|
口①②口 |④-----|
43
口③④口 |①-----|
口①②口 |②-----|
口口口口 |③-----|
口口口口 |④-----|
44
口口口口 |①-----|
口①②口 |②-----|
口③④口 |③-----|
口口口口 |④-----|
45
③口口③ |①-----|
②口口② |②-----|
①口口① |③-----|
口口口口 |------|
46
口口口口 |①-----|
口③②① |②-----|
口口口口 |③-----|
口口口口 |------|
47
口口口口 |①-----|
口口口口 |②-----|
①②③口 |③-----|
口口口口 |------|
48
口口口口 |①-----|
口③②① |②-----|
口口口口 |③-----|
口口口口 |------|
49
口口口口 |①-----|
口②③口 |②-----|
口①④口 |③-----|
口口口口 |④-----|
50
口口口口 |①-----|
口③②① |②-----|
口口口口 |③-----|
口口口口 |------|
51
口口口口 |①-----|
口口口口 |②-----|
①②③口 |③-----|
口口口口 |------|
52
口口口口 |①-----|
口③②① |②-----|
口口口口 |③-----|
口口口口 |------|
53
③口口③ |①-----|
口②②口 |②-----|
口①①口 |③-----|
口口口口 |------|
54
口口②口 |①-----|
口③口① |②-----|
口口口口 |③-----|
口口口口 |------|
55
口口口口 |①-----|
口口口口 |②-----|
①口③口 |③-----|
口②口口 |------|
56
口口②口 |①-----|
口③口① |②-----|
口口口口 |③-----|
口口口口 |------|
57
口口口口 |①-----|
口②③口 |②-----|
口①④口 |③-----|
口口口口 |④-----|
58
口口②口 |①-----|
口③口① |②-----|
口口口口 |③-----|
口口口口 |------|
59
口口口口 |①-----|
口口口口 |②-----|
①口③口 |③-----|
口②口口 |------|
60
口口②口 |①-----|
口③口① |②-----|
口口口口 |③-----|
口口口口 |------|
61
③口口③ |①-----|
口②②口 |②-----|
口①①口 |③-----|
口口口口 |------|
62
口口口口 |①-----|
口口口口 |------|
①口口① |------|
口口口口 |------|
63
口口口口 |------|
口①①口 |------|
口口口口 |①-----|
口口口口 |------|
64
①①①① |①-----|
口口口口 |------|
口口口口 |------|
口口口口 |------|
65
口口口口 |------|
口口口口 |------|
口口口口 |------|
口口口口 |------|
66
口口口口 |①-----|
①口③口 |②-----|
口②口④ |③-----|
口口口口 |④-----|
67
口口口口 |①-----|
口③口① |②-----|
④口②口 |③-----|
口口口口 |④-----|
68
口口④口 |①-----|
口③口口 |②-----|
口口②口 |③-----|
口①口口 |④-----|
69
口①口口 |①-----|
口口②口 |②-----|
口③口口 |③-----|
口口④口 |④-----|
70
口口口口 |①-----|
①口口① |------|
①口口① |------|
口口口口 |------|


不確定度: 0

最終更新:2013年03月27日 20:11