右肩の蝶
のりぴー

ADVANCED

Level: 6
BPM: 140
Notes: 464

1
口口口口 |------|
口口口口 |------|
口口口口 |------|
口口口口 |------|
2
口口口③ |①-----|
口口③口 |②-----|
口口口② |③-----|
口口口① |------|
3
①口口口 |①-----|
②口口口 |②-----|
③口口口 |③-----|
口③口口 |------|
4
③口口③ |①-----|
口②口口 |②-----|
口口①口 |③-----|
口口口口 |------|
5
口口①口 |①-----|
口②口口 |②-----|
口口③口 |③-----|
口④口口 |④-----|
6
口口口③ |①-----|
口口③口 |②-----|
口口口② |③-----|
口口口① |------|
7
①口口口 |①-----|
②口口口 |②-----|
③口口口 |③-----|
口③口口 |------|
8
③口口③ |①-----|
口②口口 |②-----|
口口①口 |③-----|
口口口口 |------|
9
③③③③ |①-----|
②口口② |②-----|
①口口① |③-----|
口口口口 |------|
10
口⑦口口 |①--②--|
⑤①②⑤ |③--④--|
⑥③④⑥ |⑤----⑥|
口口口口 |---⑦--|
11
口口口口 |---①--|
④口①④ |②--③--|
⑤②③⑤ |④----⑤|
口口口口 |------|
12
口⑦口口 |①--②--|
⑤①②⑤ |③--④--|
⑥③④⑥ |⑤----⑥|
口口口口 |---⑦--|
13
口口口口 |---①--|
口口①口 |②--③--|
口②③口 |④--⑤--|
④⑤⑥⑦ |⑥--⑦--|
14
口⑦口口 |①--②--|
⑤①②⑤ |③--④--|
⑥③④⑥ |⑤----⑥|
口口口口 |---⑦--|
15
口口口口 |---①--|
④口①④ |②--③--|
⑤②③⑤ |④----⑤|
口口口口 |------|
16
口口口口 |①--②--|
⑤①②⑤ |③--④--|
⑥③④⑥ |⑤----⑥|
口口口口 |------|
17
①口口① |①-----|
口②②口 |②-----|
③口口③ |③-----|
口④④口 |④-----|
18
⑥⑦①② |①-②--③|
③口⑤口 |---④--|
口⑤口口 |⑤-----|
口口④口 |---⑥-⑦|
19
口口①② |①-②--③|
③⑤口口 |---④--|
口口⑤口 |⑤-----|
口口④口 |------|
20
口口①② |①-②--③|
③口⑤口 |---④--|
口⑤口口 |⑤-----|
⑥口④口 |---⑥--|
21
②口口① |①--②--|
口④口口 |③--④--|
口口⑥⑦ |⑤--⑥-⑦|
口⑤口③ |------|
22
⑥⑦①② |①-②--③|
③口⑤口 |---④--|
口⑤口口 |⑤-----|
口口④口 |---⑥-⑦|
23
口⑥①② |①-②--③|
③⑤口口 |---④--|
口口⑤口 |⑤-----|
口口④口 |-----⑥|
24
口口①② |①-②--③|
③口⑤口 |---④--|
口⑤口口 |⑤-----|
口口④口 |------|
25
④口口④ |①----②|
口②③口 |---③--|
口③②口 |④-----|
①口口① |------|
26
口⑤口① |------|
④口口② |①--②--|
口口口③ |③----④|
口口口口 |---⑤--|
27
口口口口 |①----②|
口口①口 |---③--|
口②口④ |④-----|
口⑤③口 |---⑤--|
28
口⑤⑤口 |①----②|
口②口④ |---③--|
①口③口 |④-----|
口口口口 |⑤-----|
29
口口口口 |①-----|
②口口② |②-----|
口①①口 |③-----|
③口口③ |------|
30
①口口口 |------|
②口口口 |①--②--|
③口口口 |③----④|
口④口⑤ |---⑤--|
31
口③③口 |①-----|
口②②口 |②-----|
口①①口 |③-----|
口口口口 |------|
32
口口口⑤ |①----②|
④口⑥② |---③--|
①口③口 |④----⑤|
口口口口 |---⑥--|
33
口①①口 |①-----|
②口口② |---②--|
③口口③ |③-----|
口口口口 |------|
34
口⑥口② |①-----|
⑤口①③ |②--③--|
口①口④ |④----⑤|
口口口口 |---⑥--|
35
口口口口 |①----②|
口口①口 |---③--|
口②口④ |④-----|
口⑤③口 |---⑤--|
36
口⑤⑤口 |①----②|
口②口④ |---③--|
①口③口 |④-----|
口口口口 |⑤-----|
37
口口口口 |①-----|
②口口② |②-----|
口①①口 |③-----|
③口口③ |------|
38
①口口口 |------|
②口口口 |①--②--|
③口口口 |③----④|
口④口⑤ |---⑤--|
39
口③③口 |①-----|
口②②口 |②-----|
口①①口 |③-----|
口口口口 |------|
40
口口口⑤ |①----②|
④口⑥② |---③--|
①口③口 |④----⑤|
口口口口 |---⑥--|
41
口①①口 |①-----|
②口口② |---②--|
③口口③ |③-----|
口口口口 |------|
42
口④⑦口 |---①--|
③⑥⑤口 |②--③--|
②口口口 |④--⑤-⑥|
口①口口 |---⑦--|
43
口⑥⑦口 |①--②--|
口口⑤① |③--④--|
口④口② |⑤--⑥-⑦|
口口③口 |------|
44
①口口口 |---①--|
口⑤⑤② |②--③--|
③口口口 |④-----|
口④④口 |⑤-----|
45
④口口④ |①--②--|
③⑤⑤③ |③--④--|
②⑤⑤② |⑤-----|
①口口① |------|
46
⑥⑦①② |①-②--③|
③口⑤口 |---④--|
口⑤口口 |⑤-----|
口口④口 |---⑥-⑦|
47
口口①② |①-②--③|
③⑤口口 |---④--|
口口⑤口 |⑤-----|
口口④口 |------|
48
口口①② |①-②--③|
③口⑤口 |---④--|
口⑤口口 |⑤-----|
⑥口④口 |---⑥--|
49
②口口① |①--②--|
口④口口 |③--④--|
口口⑥⑦ |⑤--⑥-⑦|
口⑤口③ |------|
50
⑥⑦①② |①-②--③|
③口⑤口 |---④--|
口⑤口口 |⑤-----|
口口④口 |---⑥-⑦|
51
口⑥①② |①-②--③|
③⑤口口 |---④--|
口口⑤口 |⑤-----|
口口④口 |-----⑥|
52
口口①② |①-②--③|
③口⑤口 |---④--|
口⑤口口 |⑤-----|
口口④口 |------|
53
口口口口 |①----②|
④②③④ |---③--|
口③②口 |④-----|
①口口① |------|
54
⑦⑧①② |①-②--③|
③口⑤口 |---④--|
⑥⑤口⑥ |⑤-----|
口口④口 |⑥--⑦-⑧|
55
口口①② |①-②--③|
③⑤口口 |---④--|
⑥口⑤⑥ |⑤-----|
口口④口 |⑥-----|
56
口口①② |①-②--③|
③口⑤口 |---④--|
⑥⑤口⑥ |⑤-----|
⑦口④口 |⑥--⑦--|
57
②口口① |①--②--|
口④口口 |③--④--|
口口⑥⑦ |⑤--⑥-⑦|
口⑤口③ |------|
58
⑦⑧①② |①-②--③|
③口⑤口 |---④--|
⑥⑤口⑥ |⑤-----|
口口④口 |⑥--⑦-⑧|
59
口⑦①② |①-②--③|
③⑤口口 |---④--|
⑥口⑤⑥ |⑤-----|
口口④口 |⑥----⑦|
60
口口①② |①-②--③|
③口⑤口 |---④--|
⑥⑤口⑥ |⑤-----|
口口④口 |⑥-----|
61
④口口④ |①----②|
口②③口 |---③--|
口③②口 |④-----|
①口口① |------|
62
⑦口口⑧ |①--②--|
⑤口口⑥ |③--④--|
③口口④ |⑤--⑥--|
①口口② |⑦--⑧--|
63
口①②口 |①--②--|
口③④口 |③--④--|
⑤口口⑤ |⑤-----|
口口口口 |------|
64
①①①① |①-----|
口口口口 |------|
口口口口 |------|
口口口口 |------|
65
口口口口 |------|
口口口口 |------|
口口口口 |------|
口口口口 |------|
66
②口口④ |①-----|
口①③口 |②-----|
口③①口 |③-----|
④口口② |④-----|
67
口②①口 |①-----|
④口口③ |②-----|
③口口④ |③-----|
口①②口 |④-----|
68
④④口口 |①-----|
口口③③ |②-----|
②②口口 |③-----|
口口①① |④-----|
69
口口①① |①-----|
②②口口 |②-----|
口③③口 |③-----|
口④④口 |④-----|
70
①口口① |①-----|
口①①口 |------|
①口口① |------|
口口口口 |------|


不確定度: 0

最終更新:2013年03月27日 20:09