右肩の蝶
のりぴー

EXTREME

Level: 8
BPM: 140
Notes: 850

1
口口口口 |------|
口口口口 |------|
口口口口 |------|
口口口口 |------|
2
口口口口 |①-②--③|
口③口口 |---④--|
口口①②
④口口口

口口⑤⑤
⑦⑧口口
口口口口 |⑤-----|
口⑥⑥口 |⑥--⑦-⑧|
3
口③⑤口 |①-②--③|
口口口⑤ |---④--|
④口①② |⑤-----|
口⑥⑥口 |⑥-----|
4
口口⑤⑤ |①-②--③|
口③口口 |---④--|
⑦口①② |⑤-----|
④⑥⑥口 |⑥--⑦--|
5
⑦口口⑦ |①--②--|
口①⑥② |③--④--|
口⑤③口 |⑤--⑥-⑦|
口④口口 |------|
6
口口口口 |①-②--③|
口③口口 |---④--|
口口①②
④口口口

口口⑤⑤
⑦⑧口口
口口口口 |⑤-----|
口⑥⑥口 |⑥--⑦-⑧|
7
口③⑤口 |①-②--③|
口口口⑤ |---④--|
④⑦①② |⑤-----|
口⑥⑥口 |⑥----⑦|
8
口口口口 |①-②--③|
口③口口 |---④--|
口口①②
④口口口

口口⑤⑤
口⑦口口
口口⑦口 |⑤-----|
口⑥⑥口 |⑥----⑦|
9
③口口④ |①-②--③|
口口①② |---④--|
②①口口
④口口③

口⑤口口
⑤口口口
口⑥⑥⑤ |⑤-----|
口口⑤口 |---⑥--|
10
①③③① |①--②--|
口口口口 |③--④--|
口口口口
④②②④

口⑦⑦口
⑥⑥⑤⑤
⑤⑤⑥⑥ |⑤----⑥|
口口口口 |---⑦--|
11
②口口② |---①--|
④④⑤⑤ |②--③--|
⑤⑤④④ |④----⑤|
①③③① |------|
12
①③③① |①--②--|
口口口口 |③--④--|
口口口口
④②②④

口⑦⑦口
⑤⑥口⑤
⑥口⑤⑥ |⑤----⑥|
口口口口 |---⑦--|
13
②口口② |---①--|
④⑥⑤⑦ |②--③--|
⑦⑤⑥④ |④--⑤--|
①③③① |⑥--⑦--|
14
①③③① |①--②--|
口口口口 |③--④--|
口口口口
④②②④

口⑦⑦口
⑥⑥⑤⑤
⑤⑤⑥⑥ |⑤----⑥|
口口口口 |---⑦--|
15
②口口② |---①--|
④④⑤⑤ |②--③--|
⑤⑤④④ |④----⑤|
①③③① |------|
16
①③③① |①--②--|
口口口口 |③--④--|
口口口口
④②②④

⑦口口口
⑤⑥口⑤
⑥口⑤⑥ |⑤----⑥|
口口口口 |---⑦--|
17
口口⑤① |①-②③-④|
⑥口口⑦ |⑤-⑥⑦-⑧|
口④③口
②⑧口口

⑫口口⑬
口⑭⑪口
⑩口口⑮ |⑨-⑩⑪-⑫|
⑯口口⑨ |⑬-⑭⑮-⑯|
18
⑤口⑧⑤ |①-②--③|
③⑤⑤① |---④--|
③⑦②口 |⑤-----|
⑥④④⑥ |⑥--⑦-⑧|
19
⑤①口⑤ |①-②--③|
③⑤⑤③ |---④--|
⑤口②⑤ |⑤-----|
⑥④④⑥ |⑥-----|
20
口口口口 |①-②--③|
③口口① |---④--|
③口②口
口④④口

⑤⑤⑤⑤
口口口口
口口⑦口 |⑤-----|
⑥口口⑥ |⑥--⑦--|
21
③口口口 |①--②--|
口①④② |③--④--|
①③口④
口口②口

口口⑦⑦
口⑥口口
口口口口 |⑤--⑥-⑦|
⑤口口口 |------|
22
⑤口⑧⑤ |①-②--③|
③⑤⑤① |---④--|
③⑦②口 |⑤-----|
⑥④④⑥ |⑥--⑦-⑧|
23
⑤①口⑤ |①-②--③|
③口口③ |---④--|
⑤⑦②⑤ |⑤-----|
⑥④④⑥ |⑥----⑦|
24
口口口口 |①-②--③|
③口①口 |---④--|
③口②口
口④④口

⑤口⑤口
口⑤口⑤
⑦口口口 |⑤-----|
⑥口口⑥ |⑥----⑦|
25
口③④① |①-②--③|
口④③口 |---④--|
口③④②
口④③口

口口口口
⑤口口⑤
⑥口口⑥ |⑤-----|
⑤口口⑤ |⑥-----|
26
①①①① |①-----|
口口⑥② |②--③--|
⑤口③口 |④----⑤|
口④口口 |---⑥--|
27
口口③口 |①----②|
口口口口 |---③--|
口②口口
口口①口

口口口口
口口口口
⑤⑥④口 |④-----|
口口口口 |---⑤-⑥|
28
口口③口 |①----②|
口口②③ |---③--|
口口口口
口口①口

口口口⑤
口口⑥口
④口口口 |④-----|
口④口口 |⑤--⑥--|
29
⑧⑦⑥⑤ |①--②-③|
⑫⑪⑩⑨ |---④--|
④①口④ |⑤-⑥⑦⑧-|
口②③口 |⑨-⑩⑪⑫-|
30
口口⑤口 |------|
口口口口 |①--②--|
④口②① |③----④|
口③口口 |---⑤--|
31
口口⑤⑤ |①--②-③|
口口口① |---④--|
④口③口 |⑤-----|
⑥②口⑦ |---⑥-⑦|
32
口②口② |①----②|
口⑤口⑤ |---③--|
①③①③ |④----⑤|
④⑥④⑥ |---⑥--|
33
口口口口 |①-----|
口②②口 |---②--|
②①①② |③-----|
④③③④ |---④--|
34
①①①① |①-----|
口口口② |②--③--|
口口③口
口口口口

口口口口
口口⑥⑥
⑤口口口 |④----⑤|
口④口口 |---⑥--|
35
口口③③ |①----②|
口口口口 |---③--|
口②口口
口口①口

口口口口
口口口口
⑥⑦④口 |④-----|
⑤口口⑤ |⑤--⑥-⑦|
36
口口③口 |①----②|
口口②③ |---③--|
口口口口
口口①口

⑤口口⑤
口口⑥口
④口口口 |④-----|
口④口口 |⑤--⑥--|
37
口②②口 |①----②|
口口口口 |---③--|
③①①③
口口口口

⑧⑨⑩⑪
④⑤⑥⑦
口口口口 |④-⑤⑥⑦-|
口口口口 |⑧-⑨⑩⑪-|
38
口口口④ |------|
口⑤口口 |①--②--|
口②⑤① |③----④|
④③口口 |---⑤--|
39
②口口口 |①----②|
口口③① |---③--|
①③口口
口口口②

口口口口
④口口口
口口口④ |④-----|
⑥⑤⑤⑦ |⑤--⑥-⑦|
40
口②口② |①----②|
口⑤口⑤ |---③--|
①③①③ |④----⑤|
④⑥④⑥ |---⑥--|
41
⑦口②口 |①-②③-④|
③口⑥口 |⑤-⑥⑦-⑧|
口①④口
⑤口⑧口

口口口口
⑬⑨口⑩
口口⑯⑫ |⑨-⑩⑪-⑫|
⑮⑪口⑭ |⑬-⑭⑮-⑯|
42
①口口① |①--②--|
口②②口 |③--④--|
③③口口
口④④口

口⑧⑧⑦
⑥口口口
口口口口 |⑤--⑥-⑦|
口口口⑤ |---⑧--|
43
口口口口 |①--②--|
口口①① |③--④--|
口口②②
口③③④

⑦口口口
口⑦口⑥
⑤口口口 |⑤--⑥-⑦|
口口口口 |------|
44
③①①③ |---①--|
⑤⑦口⑤ |②--③--|
⑥口⑧⑥ |④--⑤-⑥|
④②②④ |---⑦-⑧|
45
②④①③ |①--②--|
口口口口 |③--④--|
口口口口
③①④②

⑥口⑥口
⑤口⑤口
口⑤口⑤ |⑤-----|
口⑥口⑥ |⑥-----|
46
⑤口⑧⑤ |①-②--③|
③⑤⑤① |---④--|
③⑦②口 |⑤-----|
⑥④④⑥ |⑥--⑦-⑧|
47
⑤①口⑤ |①-②--③|
③⑤⑤③ |---④--|
⑤口②⑤ |⑤-----|
⑥④④⑥ |⑥-----|
48
口口口口 |①-②--③|
③口口① |---④--|
③口②口
口④④口

⑤⑤⑤⑤
口口口口
口口⑦口 |⑤-----|
⑥口口⑥ |⑥--⑦--|
49
③口口口 |①--②--|
口①④② |③--④--|
①③口④
口口②口

口口⑦⑦
口⑥口口
口口口口 |⑤--⑥-⑦|
⑤口口口 |------|
50
⑤口⑧⑤ |①-②--③|
③⑤⑤① |---④--|
③⑦②口 |⑤-----|
⑥④④⑥ |⑥--⑦-⑧|
51
⑤①口⑤ |①-②--③|
③口口③ |---④--|
⑤⑦②⑤ |⑤-----|
⑥④④⑥ |⑥----⑦|
52
口口口口 |①-②--③|
③口①口 |---④--|
③口②口
口④④口

⑤口⑤口
⑦⑤口⑤
口口口口 |⑤-----|
⑥口口⑥ |⑥----⑦|
53
口⑤⑤① |①-②--③|
口口③④ |---④--|
④③口② |⑤-----|
⑥⑤⑤⑥ |⑥-----|
54
⑤口⑧⑤ |①-②--③|
③⑤⑤① |---④--|
③⑦②口 |⑤-----|
⑥④④⑥ |⑥--⑦-⑧|
55
⑤①口⑤ |①-②--③|
③⑤⑤③ |---④--|
⑤口②⑤ |⑤-----|
⑥④④⑥ |⑥-----|
56
口口口口 |①-②--③|
③口口① |---④--|
③口②口
口④④口

⑤⑤⑤⑤
口口口口
口口⑦口 |⑤-----|
⑥口口⑥ |⑥--⑦--|
57
③口口口 |①--②--|
口①④② |③--④--|
①③口④
口口②口

口口⑦⑦
口⑥口口
口口口口 |⑤--⑥-⑦|
⑤口口口 |------|
58
⑤口⑧⑤ |①-②--③|
③⑤⑤① |---④--|
③⑦②口 |⑤-----|
⑥④④⑥ |⑥--⑦-⑧|
59
⑤①口⑤ |①-②--③|
③口口③ |---④--|
⑤⑦②⑤ |⑤-----|
⑥④④⑥ |⑥----⑦|
60
口口口口 |①-②--③|
③口①口 |---④--|
③口②口
口④④口

⑤口⑤口
口⑤口⑤
⑦口口口 |⑤-----|
⑥口口⑥ |⑥----⑦|
61
口③④① |①-②--③|
口④③口 |---④--|
口③④②
口④③口

口口口口
⑤口口⑤
⑥口口⑥ |⑤-----|
⑤口口⑤ |⑥-----|
62
①①①① |①-----|
口②口② |②-----|
口口口口
口口②口

④口④口
③口口口
口④③口 |③-----|
③口口口 |④-----|
63
口②口① |①-----|
②①口② |②-----|
口口②①
口口口口

口口口口
口口口口
口④④口 |③-----|
③③③③ |---④--|
64
①口口① |①-----|
口①①口 |②-----|
①口口①
②口口②

口口口口
口④④口
口口③口 |③-----|
口③口口 |④-----|
65
①④④② |①-----|
⑤口口⑤ |②-----|
⑥③③⑥ |③--④--|
②口口① |⑤--⑥--|
66
②⑧⑤③ |①--②--|
⑥④①⑦ |③--④--|
⑧②③⑤ |⑤--⑥--|
④⑥⑦① |⑦--⑧--|
67
口口③③ |①--②--|
口②①口 |③--④--|
口②①口
④④口口

口⑥口口
⑥口⑦⑦
⑧⑧口⑤ |⑤--⑥--|
口口⑤口 |⑦--⑧--|
68
②口口① |①-②--③|
⑤口口⑥ |---④--|
⑦⑧④③ |⑤-⑥--⑦|
⑦⑧④③ |---⑧--|
69
②⑧口① |①-②--③|
④口⑦③ |---④--|
口⑥口口 |⑤--⑥--|
④口⑤③ |⑦--⑧--|
70
口口口口 |①-----|
①口口① |②-----|
口口口口 |------|
②②②② |------|


不確定度: 0

最終更新:2013年03月27日 20:07