ロミオとシンデレラ
doriko

BASIC

Level: 3
BPM: 170
Notes: 172

1
口口口口 |----|
口①②口 |----|
口口口口 |①---|
口口口口 |②---|
2
口口口口 |①---|
口口口口 |----|
口口口① |②---|
口口②口 |----|
3
口口口口 |①---|
口③②口 |----|
口①口口 |②---|
口口口口 |③---|
4
口口口口 |①---|
口口口口 |----|
①口口口 |②---|
口②口口 |----|
5
口口口口 |①---|
口②口口 |----|
口口①口 |②---|
口口口口 |----|
6
口口②口 |①---|
口口口① |----|
口口口口 |②---|
口口口口 |----|
7
口口口口 |①---|
口①口口 |----|
②口口口 |②---|
口口口口 |----|
8
口口口口 |①---|
口口口口 |----|
口口口口 |----|
口①口口 |----|
9
口口口口 |①---|
口口口口 |----|
口口口口 |----|
口①①口 |----|
10
口口口口 |①---|
口口②① |----|
口口口口 |②---|
口口口口 |----|
11
口口口口 |①---|
口口口口 |----|
①②口口 |②---|
口口口口 |----|
12
口口口口 |①---|
①②口口 |----|
口口口口 |②---|
口口口口 |----|
13
口口口口 |①---|
口口口口 |----|
口口②① |②---|
口口口口 |----|
14
口口口口 |①---|
口口②① |----|
口口口口 |②---|
口口口口 |----|
15
口口口口 |①---|
口口口口 |----|
①②口口 |②---|
口口口口 |----|
16
口口口口 |①---|
①②口口 |----|
口口口口 |②---|
口口口口 |----|
17
口口口口 |①---|
口口口口 |----|
口口②① |②---|
口口口口 |----|
18
口口口口 |①---|
①口②口 |----|
口口口口 |②---|
口口口口 |----|
19
口口口口 |①---|
口口口口 |----|
口①口口 |②---|
口②口口 |----|
20
口口口口 |①---|
口②口① |----|
口口口口 |②---|
口口口口 |----|
21
口口口口 |①---|
口口口口 |----|
口口①口 |②---|
口口②口 |----|
22
口口口口 |①---|
②口口口 |----|
口①口口 |②---|
口口口口 |----|
23
口口口口 |①---|
口口口② |----|
口口①口 |②---|
口口口口 |----|
24
口口口口 |①---|
口口口口 |----|
口①口口 |②---|
口②口口 |----|
25
①②③④ |①---|
口口口口 |②---|
口口口口 |③---|
口口口口 |④---|
26
口口口口 |①---|
①口②口 |----|
口口口口 |②---|
口口口口 |----|
27
口口口口 |①---|
口口口口 |----|
口①口口 |②---|
口②口口 |----|
28
口口口口 |①---|
口②口① |----|
口口口口 |②---|
口口口口 |----|
29
口口口口 |①---|
口口口口 |----|
口口①口 |②---|
口口②口 |----|
30
口口口口 |①---|
②口口口 |----|
口①口口 |②---|
口口口口 |----|
31
口口口口 |①---|
口口口② |----|
口口①口 |②---|
口口口口 |----|
32
口口口口 |①---|
口口口口 |----|
口口①口 |②---|
口口②口 |----|
33
④③②① |①---|
口口口口 |②---|
口口口口 |③---|
口口口口 |④---|
34
口口口口 |①---|
口①口口 |----|
口②口口 |②---|
口口口口 |----|
35
口口口口 |①---|
口口①口 |----|
口口②口 |②---|
口口口口 |----|
36
口口②口 |①---|
口①口口 |----|
口口口口 |②---|
口口口口 |----|
37
口口口口 |①---|
口口口① |----|
口口②口 |②---|
口口口口 |----|
38
口口口口 |①---|
②①口口 |----|
口口口口 |②---|
口口口口 |----|
39
口口口口 |①---|
口口①② |----|
口口口口 |②---|
口口口口 |----|
40
口口口口 |①---|
口口口口 |----|
口口①口 |②---|
口②口口 |----|
41
①②③④ |①---|
口口口口 |②---|
口口口口 |③---|
口口口口 |④---|
42
口口口口 |①---|
口口①口 |----|
口口②口 |②---|
口口口口 |----|
43
口口口口 |①---|
口①口口 |----|
口②口口 |②---|
口口口口 |----|
44
口②口口 |①---|
口口①口 |----|
口口口口 |②---|
口口口口 |----|
45
口口口口 |①---|
①口口口 |----|
口②口口 |②---|
口口口口 |----|
46
口口口口 |①---|
口口①② |----|
口口口口 |②---|
口口口口 |----|
47
口口口口 |①---|
②①口口 |----|
口口口口 |②---|
口口口口 |----|
48
口口口口 |①---|
口②③口 |②---|
①口口④ |③---|
口口口口 |④---|
49
口口口口 |①---|
口口口口 |②---|
口②口口 |----|
口口①口 |----|
50
口口口口 |①---|
口①①口 |----|
口①①口 |----|
口口口口 |----|
51
口口口口 |①---|
①口口④ |②---|
口②③口 |③---|
口口口口 |④---|
52
口口①口 |①---|
口②②口 |----|
口口口口 |②---|
口口口口 |----|
53
口口口口 |①---|
口口口口 |----|
①②口口 |②---|
口口口口 |----|
54
口口口口 |①---|
口口口口 |----|
口口②① |②---|
口口口口 |----|
55
口口口口 |①---|
②口口口 |----|
口①口口 |②---|
口口口口 |----|
56
口口口口 |①---|
口口口② |----|
口口①口 |②---|
口口口口 |----|
57
口口口口 |①---|
口①口口 |----|
口②口口 |②---|
口口口口 |----|
58
口口口口 |①---|
口口①口 |----|
口口②口 |②---|
口口口口 |----|
59
口口口口 |①---|
④口口① |②---|
口③②口 |③---|
口口口口 |④---|
60
口①口口 |①---|
口②②口 |----|
口口口口 |②---|
口口口口 |----|
61
口口口口 |①---|
口口口口 |----|
口口②① |②---|
口口口口 |----|
62
口口口口 |①---|
口口口口 |----|
①②口口 |②---|
口口口口 |----|
63
口口口口 |①---|
口口口② |----|
口口①口 |②---|
口口口口 |----|
64
口口口口 |①---|
②口口口 |----|
口①口口 |②---|
口口口口 |----|
65
口口口口 |①---|
口口①口 |----|
口口②口 |②---|
口口口口 |----|
66
口口口口 |①---|
口①口口 |----|
口②口口 |②---|
口口口口 |----|
67
口口口口 |①---|
口口口口 |----|
口②②口 |②---|
口口①① |----|
68
口③②口 |①---|
④口口① |②---|
口口口口 |③---|
口口口口 |④---|
69
口口口口 |①---|
口口口口 |----|
口①①口 |----|
口口口口 |----|
70
口①口口 |①---|
口②②口 |②---|
口口③口 |③---|
口④④口 |④---|
71
口口口口 |①---|
口口②① |----|
口口口口 |②---|
口口口口 |----|
72
口口口口 |①---|
口口口口 |----|
①②口口 |②---|
口口口口 |----|
73
口口口口 |①---|
①②口口 |----|
口口口口 |②---|
口口口口 |----|
74
口口口口 |①---|
口口口口 |----|
口口②① |②---|
口口口口 |----|


不確定度: 0

最終更新:2013年03月27日 20:07