ロミオとシンデレラ
doriko

ADVANCED

Level: 7
BPM: 170
Notes: 477

1
④口口口 |----|
口口③口 |----|
口②口口 |①-②-|
口口口① |③-④-|
2
口口①口 |①---|
口②口① |----|
口口②口 |②---|
口口口口 |----|
3
口口②口 |①---|
③口口⑤ |----|
①口④口 |②-③-|
口①口口 |④-⑤-|
4
口①④口 |①---|
口口口口 |②-③-|
口③⑤口 |--④-|
口口②口 |--⑤-|
5
口②口口 |①---|
口口口① |②---|
③口口口 |③---|
口口④口 |④---|
6
口口口口 |①---|
口①①口 |--②-|
②口口② |----|
口③③口 |③---|
7
④③②④ |①---|
口口口口 |②---|
③①①② |③---|
口口口口 |④---|
8
口口口口 |①-②-|
口口口口 |----|
口①①口 |----|
口②②口 |----|
9
口口④口 |①-②-|
⑤③⑤口 |③-④-|
口⑥②⑥ |⑤---|
①口口① |⑥---|
10
④口③口 |①-②-|
口⑤口② |③---|
口口⑥口 |④-⑤-|
①口①⑦ |⑥-⑦-|
11
④口口口 |--①-|
口⑤③口 |②-③-|
口②⑥口 |④-⑤-|
①口口⑦ |⑥-⑦-|
12
口②口③ |--①-|
①口④口 |②---|
口⑤口口 |③-④-|
⑥口口口 |⑤-⑥-|
13
口口口④ |--①-|
口③⑤口 |②-③-|
口⑥②口 |④-⑤-|
⑦口口① |⑥-⑦-|
14
③口②口 |--①-|
口④口① |②---|
口口⑤口 |③-④-|
口口口⑥ |⑤-⑥-|
15
④口口口 |--①-|
口⑤③口 |②-③-|
口②⑥口 |④-⑤-|
①口口⑦ |⑥-⑦-|
16
口②口③ |--①-|
①口④口 |②---|
口⑤口口 |③-④-|
⑥口口口 |⑤-⑥-|
17
④口口④ |--①-|
⑤③口⑤ |②-③-|
⑥口②⑥ |④--⑤|
口口口① |--⑥-|
18
口口口口 |--①-|
口①口口 |②-③-|
口②口口
口口③口

口口口口
口⑦④口
口口⑤口 |④-⑤-|
口⑥口口 |⑥-⑦-|
19
④口①口 |①---|
口⑤口口 |②-③-|
⑥口口② |--④-|
口口③口 |⑤-⑥-|
20
口口口口 |--①-|
口口①口 |②-③-|
口口②口
口③口口

口口口口
口④⑦口
口⑤口口 |④-⑤-|
口口⑥口 |⑥-⑦-|
21
口①口④ |①---|
口口⑤口 |②-③-|
②口口⑥ |--④-|
口③口口 |⑤-⑥-|
22
口口④口 |--①-|
口③口口 |②-③-|
口口②口 |④---|
口①口口 |----|
23
口④口口 |--①-|
口口③⑤ |②-③-|
口②口口 |④---|
口口①口 |⑤---|
24
口④④口 |①---|
口口口口 |--②-|
①口②口 |③---|
口口口③ |--④-|
25
④口口口 |--①-|
口⑤③口 |②-③-|
口②⑥口 |④-⑤-|
①口口⑦ |⑥-⑦-|
26
⑤口口口 |--①-|
口⑦④口 |②-③-|
③口口② |④-⑤-|
口①口⑥ |⑥-⑦-|
27
④口①口 |①---|
口⑤口口 |②-③-|
⑥口口② |--④-|
口口③口 |⑤-⑥-|
28
口口口口 |--①-|
④口⑦⑤ |②-③-|
口⑥③① |④-⑤-|
口②口口 |⑥-⑦-|
29
口①口④ |①---|
口③⑤口 |②-③-|
②口口⑥ |--④-|
口口口口 |⑤-⑥-|
30
口口④口 |--①-|
口③口口 |②-③-|
口口②口 |④---|
口①口口 |----|
31
口④口⑤ |--①-|
口口③口 |②-③-|
口②口口 |④---|
口口①口 |⑤---|
32
①④④口 |①---|
口口口口 |--②-|
口②②口 |③---|
口③③口 |--④-|
33
口口口④ |--①-|
口③⑤口 |②-③-|
口⑥②口 |④-⑤-|
⑦口口① |⑥-⑦-|
34
口①①口 |①---|
④⑤⑥口 |②-③-|
口口②口 |--④-|
口③口口 |⑤-⑥-|
35
口①①口 |①---|
口⑥⑤④ |②-③-|
口②口口 |--④-|
口口③口 |⑤-⑥-|
36
④①①口 |①---|
口⑤口口 |②-③-|
口③口⑥ |--④-|
口口②口 |⑤-⑥-|
37
⑥口口④ |①-②-|
口口③口 |③-④-|
口②⑤口 |--⑤-|
口口①口 |--⑥-|
38
口⑥②口 |①-②-|
⑦①⑤③ |③-④-|
口口口④ |--⑤-|
口口口口 |⑥-⑦-|
39
口⑤口口 |①-②-|
④口⑥③ |--③-|
①口口口 |--④-|
口②口口 |⑤-⑥-|
40
口④④① |①---|
口口口口 |②-③-|
口②口口 |----|
口口③口 |--④-|
41
口口口④ |--①-|
③⑤口口 |②-③-|
口口②⑥ |④-⑤-|
①⑦口口 |⑥-⑦-|
42
口①①口 |①---|
口⑥⑤④ |②-③-|
口②口口 |--④-|
口口③口 |⑤-⑥-|
43
口①①口 |①---|
④⑤⑥口 |②-③-|
口口②口 |--④-|
口③口口 |⑤-⑥-|
44
口①①④ |①---|
口口⑤口 |②-③-|
⑥口③口 |--④-|
口②口口 |⑤-⑥-|
45
④口口⑦ |①-②-|
口③⑥口 |③-④-|
口⑤②口 |--⑤-|
口①口口 |⑥-⑦-|
46
口①口口 |①-②-|
②口④口 |--③-|
口⑥口口 |--④-|
⑤③口口 |--⑤⑥|
47
④口③口 |①---|
口口口② |②-③-|
⑤口口口 |--④-|
口口①口 |--⑤-|
48
口⑤口口 |--①②|
④口⑥口 |③-④-|
口⑦②口 |⑤-⑥-|
口③⑧① |⑦-⑧-|
49
口口①② |--①-|
口口口口 |②---|
口口口口 |----|
口口口口 |----|
50
口口口口 |①---|
①①①① |----|
①①①①
口口口口

口口口口
口口口口
口口②口 |----|
口口口口 |--②-|
51
口⑦口② |①---|
⑦①⑦③ |②-③-|
口⑦口口 |④-⑤-|
④⑤⑥口 |⑥-⑦-|
52
①口口口 |--①-|
口②口⑤ |②-③-|
口⑥③口 |--④-|
④口口口 |⑤-⑥-|
53
口①口口 |①---|
口④⑥口 |②-③-|
口⑤口③ |--④-|
口口②口 |⑤-⑥-|
54
口②口① |①---|
③口口口 |②-③-|
口口口⑤ |--④-|
口④口口 |--⑤-|
55
②口口口 |①---|
口口①口 |②-③-|
③口⑤口 |--④-|
口⑥口④ |⑤-⑥-|
56
口②口口 |①-②-|
①⑥③⑤ |③-④-|
口④⑦口 |--⑤-|
口口口口 |⑥-⑦-|
57
口口口口 |①-②-|
口口⑦③ |--③-|
①口口口 |--④⑤|
④⑤⑥② |⑥-⑦-|
58
口①口口 |①---|
口口口④ |②-③-|
口⑤②口 |--④-|
口口口③ |--⑤-|
59
②口口口 |①---|
③⑦①⑦ |②-③-|
口口口口 |④-⑤-|
口⑥⑤④ |⑥-⑦-|
60
口口①② |①-②-|
口口③口 |③-④-|
口④①口
口口口口

口口口口
⑥口口口
口口⑦口 |--⑤-|
口口口⑤ |⑥-⑦-|
61
口口①口 |①---|
口⑥④口 |②-③-|
③口⑤口 |--④-|
口②口口 |⑤-⑥-|
62
①口②口 |①---|
口口口③ |②-③-|
⑤口口口 |--④-|
口口④口 |--⑤-|
63
口口口② |①---|
⑦①口口 |②-③-|
口口口③ |--④⑤|
④⑤⑥口 |⑥-⑦-|
64
口口②口 |①-②-|
⑥③口① |③-④-|
口口④口 |--⑤-|
口⑤口口 |--⑥-|
65
口①口口 |①-②-|
口口②口 |--③-|
⑦口口口 |--④⑤|
③⑥⑤④ |⑥-⑦-|
66
口③口④ |①---|
口口②口 |②-③-|
⑤口口① |--④-|
口口口口 |--⑤-|
67
口③②口 |①---|
⑥⑤⑤⑥ |②-③-|
口④④口 |--④-|
口①口口 |⑤-⑥-|
68
①口口① |①---|
口口口口 |②---|
③④④③ |③---|
②口口② |④---|
69
口口口口 |①---|
口口口口 |----|
口口口口 |----|
①①①① |----|
70
①④④① |①--②|
口③③口 |--③-|
口⑥⑥口 |④--⑤|
⑤②②⑤ |--⑥-|
71
④口③口 |①-②-|
口⑤口② |③---|
口口⑥口 |④-⑤-|
口①①⑦ |⑥-⑦-|
72
④口口口 |--①-|
口⑤③口 |②-③-|
口②⑥口 |④-⑤-|
①口口⑦ |⑥-⑦-|
73
口②口③ |--①-|
①口④口 |②---|
口⑤口口 |③-④-|
⑥口口口 |⑤-⑥-|
74
口口口④ |--①-|
口③⑤口 |②-③-|
口⑥②口 |④-⑤-|
⑦口口① |⑥-⑦-|


不確定度: 0

最終更新:2013年03月27日 20:05