ロミオとシンデレラ
doriko

EXTREME

Level: 9
BPM: 170
Notes: 738

1
①口口口 |----|
口口②口 |----|
④口口口 |①-②-|
口口③口 |③-④-|
2
口②①口 |①---|
②①②① |----|
口②①口 |②---|
口口口口 |----|
3
口口口口 |①---|
口口口口 |----|
①口口①
①口口①

⑤口②口
口口口口
口③口口 |②-③-|
口口口④ |④-⑤-|
4
口⑤口① |①---|
口口①④ |②-③-|
②口口口 |--④-|
口③口口 |--⑤-|
5
口口口口 |①---|
①口口口 |②---|
口口口口
②②口口

口口口口
④④口口
口口③③ |③---|
口口口口 |④---|
6
②口口① |①---|
③口口③ |--②-|
口①②口 |----|
口口口口 |③---|
7
口②③口 |①---|
口④④口 |②---|
口③②口 |③---|
①④④① |④---|
8
口口口口 |①-②-|
②口口① |----|
①口口② |----|
口口口口 |----|
9
口⑤⑤口 |①-②-|
⑥口④⑥ |③-④-|
①③口① |⑤---|
①口②① |⑥---|
10
②⑥⑦③ |①-②-|
⑥②③⑦ |③---|
⑤口口④ |④-⑤-|
①⑤④① |⑥-⑦-|
11
①⑥⑦口 |--①-|
⑥①口⑦ |②-③-|
⑤②③④ |④-⑤-|
②⑤④③ |⑥-⑦-|
12
①⑤⑥② |--①-|
⑤①②⑥ |②---|
④口口③ |③-④-|
口④③口 |⑤-⑥-|
13
①⑥⑦口 |--①-|
⑥①口⑦ |②-③-|
⑤②③④ |④-⑤-|
②⑤④③ |⑥-⑦-|
14
①⑤⑥② |--①-|
⑤①②⑥ |②---|
④口口③ |③-④-|
口④③口 |⑤-⑥-|
15
①⑥⑦口 |--①-|
⑥①口⑦ |②-③-|
⑤②③④ |④-⑤-|
②⑤④③ |⑥-⑦-|
16
①⑤⑥② |--①-|
⑤①②⑥ |②---|
④口口③ |③-④-|
口④③口 |⑤-⑥-|
17
①④口④ |--①-|
④①④口 |②-③-|
⑤②③⑤ |④--⑤|
②⑥⑥③ |--⑥-|
18
⑤口口口 |--①-|
口①口口 |②-③-|
口⑥②④ |④-⑤-|
③口⑦口 |⑥-⑦-|
19
口②③口 |①---|
①④④① |②-③-|
③⑤⑤② |--④-|
口⑥⑥口 |⑤-⑥-|
20
⑤①口口 |--①-|
口口口② |②-③-|
口⑥口口 |④-⑤-|
③口⑦④ |⑥-⑦-|
21
口③②口 |①---|
①④④① |②-③-|
②⑤⑤③ |--④-|
口⑥⑥口 |⑤-⑥-|
22
口④口口 |--①-|
口口③口 |②-③-|
②口口① |④---|
口口口口 |----|
23
口口口口 |--①-|
口③⑤口 |②-③-|
①口④② |④---|
口口口⑤ |⑤---|
24
口①口口 |①---|
口②③口 |--②-|
①③②口 |③---|
④口口④ |--④-|
25
口口①⑥ |--①-|
④⑦口口 |②-③-|
口口⑤② |④-⑤-|
口③口口 |⑥-⑦-|
26
⑤口口口 |--①-|
口口②口 |②-③-|
①⑥口④ |④-⑤-|
口③⑦口 |⑥-⑦-|
27
口②③口 |①---|
①④④① |②-③-|
③⑤⑤② |--④-|
口⑥⑥口 |⑤-⑥-|
28
②口③口 |--①-|
口口口口 |②-③-|
④口⑦① |④-⑤-|
口⑥口⑤ |⑥-⑦-|
29
口④④口 |①---|
①③②① |②-③-|
口⑤⑤口 |--④-|
②⑥⑥③ |⑤-⑥-|
30
口④口口 |--①-|
口口③口 |②-③-|
②口口① |④---|
口口口口 |----|
31
⑤口口⑤ |--①-|
口③口口 |②-③-|
①口④② |④---|
口口口口 |⑤---|
32
口口口口 |①---|
口口口口 |--②-|
②口口②
口①①口

③口口③
④口④口
口口口口 |③---|
④口④口 |--④-|
33
⑥①口⑦ |--①-|
口⑥⑦④ |②-③-|
⑤②④口 |④-⑤-|
口⑤口③ |⑥-⑦-|
34
口①①口 |①---|
⑥口口口 |②-③-|
口②②⑤ |--④-|
④③③口 |⑤-⑥-|
35
口①①口 |①---|
口口口⑥ |②-③-|
⑤②②口 |--④-|
口③③④ |⑤-⑥-|
36
①口口口 |①---|
口口口口 |②-③-|
口③③口
口②②口

⑥④口④
⑤口⑤口
口口口口 |--④-|
口口口⑥ |⑤-⑥-|
37
口口①口 |①-②-|
口口口② |③-④-|
②③口③
④①④口

⑤口口⑤
口口口⑥
口口口口 |--⑤-|
口口口口 |--⑥-|
38
口口④口 |①-②-|
⑤③口⑥ |③-④-|
①口口口 |--⑤-|
口⑦②口 |⑥-⑦-|
39
③口口③ |①-②-|
口②口口 |--③-|
口口①口
口口口口

口口口口
口⑥口口
口口⑤口 |--④-|
口④口口 |⑤-⑥-|
40
口口①口 |①---|
口④②④ |②-③-|
口②口③ |----|
口④③④ |--④-|
41
③口①口 |--①-|
口口口口 |②-③-|
口口口②
口口口口

口⑥⑦口
⑥口口⑦
口④⑤口 |④-⑤-|
④口口⑤ |⑥-⑦-|
42
口口口口 |①---|
⑥①①口 |②-③-|
口③③口 |--④-|
⑤②②④ |⑤-⑥-|
43
口口口口 |①---|
口口口① |②-③-|
口③③口
口②②口

口口口口
口口口⑥
口口口口 |--④-|
④口口⑤ |⑤-⑥-|
44
④口④⑥ |①---|
①⑤口⑤ |②-③-|
口③③口 |--④-|
⑥②②口 |⑤-⑥-|
45
口①口口 |①-②-|
②口口口 |③-④-|
③口③②
口④①④

口口口口
口口口⑤
口⑥口口 |--⑤-|
口口⑦口 |⑥-⑦-|
46
口口④口 |①-②-|
③口⑥⑤ |--③-|
口口②④ |--④-|
①③口口 |--⑤⑥|
47
口口④口 |①---|
⑤①口④ |②-③-|
口⑤③口 |--④-|
②口口口 |--⑤-|
48
口⑧⑧口 |--①②|
口⑤口④ |③-④-|
⑥口口口 |⑤-⑥-|
①②③⑦ |⑦-⑧-|
49
②口口② |--①-|
口②②口 |②---|
口口口口 |----|
口①①口 |----|
50
口①①口 |①---|
口①①口 |----|
口①①口
口①①口

口口口口
口口口口
口口②口 |----|
口口口口 |--②-|
51
②③口⑦ |①---|
③④①口 |②-③-|
口①口⑥ |④-⑤-|
⑦口⑥⑤ |⑥-⑦-|
52
口口③口 |--①-|
口②①③ |②-③-|
③①②口
口③口口

口④口口
⑤口⑥口
口口口④ |--④-|
⑥口⑤口 |⑤-⑥-|
53
①③③① |①---|
口口口口 |②-③-|
口②②口
口口口口

⑥口口⑤
口⑤⑥口
口口口口 |--④-|
④口口④ |⑤-⑥-|
54
口口口口 |①---|
口⑤口口 |②-③-|
①②②① |--④-|
④③③④ |--⑤-|
55
口①口口 |①---|
①口②口 |②-③-|
口②口③
口口③口

口⑤口⑥
口口口口
口口口口 |--④-|
口④口口 |⑤-⑥-|
56
①口④⑤ |①-②-|
⑥②⑤③ |③-④-|
③⑥②⑦ |--⑤-|
口④⑦① |⑥-⑦-|
57
口口口口 |①-②-|
口①口② |③---|
①口②口
③口口③

④⑤⑥口
口口口口
口⑦⑦口 |--④⑤|
口口口口 |⑥-⑦-|
58
口口口口 |①---|
口①①口 |②-③-|
②⑤口② |--④-|
④③③④ |--⑤-|
59
口⑤③② |①---|
口①④③ |②-③-|
⑦口①⑤ |④-⑤-|
⑥⑦口口 |⑥-⑦-|
60
①④口口 |①-②-|
④②③口 |③-④-|
口③②④
口口④①

口口⑤口
口⑦口⑥
⑤口口口 |--⑤-|
口⑥口⑦ |⑥-⑦-|
61
①③③① |①---|
口口口口 |②-③-|
口②②口
口口口口

⑤口口⑥
口⑥⑤口
口口口口 |--④-|
④口口④ |⑤-⑥-|
62
口口口口 |①---|
口口⑤口 |②-③-|
①②②① |--④-|
④③③④ |--⑤-|
63
⑦口①口 |①---|
②口口① |②-③-|
口②⑤③ |--④⑤|
口⑥③④ |⑥-⑦-|
64
⑤④口① |①-②-|
③⑤②口 |③-④-|
⑥②口③ |--⑤-|
①⑥④口 |--⑥-|
65
口口口口 |①-②-|
②口①口 |--③-|
口②口①
③口口③

④⑤⑥口
口口口口
口⑦⑦口 |--④⑤|
口口口口 |⑥-⑦-|
66
口④④口 |①---|
口①①口 |②-③-|
②⑤⑤② |--④-|
口③③口 |--⑤-|
67
口④⑤口 |①---|
③⑥口③ |②-③-|
②口⑥② |--④-|
①⑤④① |⑤-⑥-|
68
②口口② |①---|
③口①④ |②---|
④①口③ |③---|
口口口口 |④---|
69
口口口口 |①---|
口②②口 |②---|
口①①口
①①①①

口⑤④口
口口口口
③⑥⑦③ |③---|
口口口口 |④⑤⑥⑦|
70
①⑤⑤① |①--②|
①②②① |--③-|
④⑥⑥④ |④--⑤|
②③③② |--⑥-|
71
③⑦⑥② |①-②-|
⑦③②⑥ |③---|
④口口⑤ |④-⑤-|
①④⑤① |⑥-⑦-|
72
口⑦⑥① |--①-|
⑦口①⑥ |②-③-|
④③②⑤ |④-⑤-|
③④⑤② |⑥-⑦-|
73
②⑥⑤① |--①-|
⑥②①⑤ |②---|
③口口④ |③-④-|
口③④口 |⑤-⑥-|
74
口⑦⑥① |--①-|
⑦口①⑥ |②-③-|
④③②⑤ |④-⑤-|
③④⑤② |⑥-⑦-|


不確定度: 0

最終更新:2013年03月27日 18:40