キラキラ☆
Mizca

BASIC

Level: 2
BPM: 134
Notes: 167

1
口口口口 |----|
口①口口 |----|
口口口口 |----|
口口口口 |①---|
2
口口③口 |①---|
口口口① |②---|
口口②口 |③---|
口口口口 |----|
3
①口口口 |①---|
口②口口 |----|
口口口口 |②---|
口口口口 |----|
4
口口口口 |①---|
口口口口 |----|
口口①口 |②---|
口口口② |----|
5
口口口口 |①---|
口口口口 |----|
②口口口 |----|
①口口口 |②---|
6
口口口口 |①---|
口③口口 |②---|
口口①口 |③---|
口②口口 |----|
7
口口口① |①---|
口口②口 |----|
口口口口 |②---|
口口口口 |----|
8
口口口口 |①---|
口口口口 |----|
口①口口 |②---|
②口口口 |----|
9
口口口口 |①---|
口④口口 |②---|
口口口口 |③---|
口③②① |④---|
10
口口③口 |①---|
④口口① |②---|
口口②口 |③---|
口口口口 |④---|
11
口③口口 |①---|
口口①口 |②---|
口②口口 |③---|
口口口口 |----|
12
口口口① |①---|
口口②口 |----|
口口口口 |②---|
口口口口 |----|
13
口口口口 |①---|
口口口口 |----|
③①口口 |②---|
②口口口 |③---|
14
口口口口 |①---|
口③口口 |②---|
口④①口 |③---|
口②口口 |④---|
15
口口口口 |①---|
口口③口 |②---|
口口口① |③---|
口口②口 |----|
16
①口口口 |①---|
口②口口 |----|
口口口口 |②---|
口口口口 |----|
17
口口口口 |①---|
口口口口 |----|
口口①口 |②---|
口口口② |----|
18
口口口口 |①---|
口口口口 |----|
②口口② |②---|
口①①口 |----|
19
口口口口 |----|
口口口口 |----|
口口口口 |----|
口口口口 |----|
20
口口口口 |①---|
口口口口 |----|
口口①口 |②---|
口口口② |----|
21
口口口口 |①---|
口口口口 |②---|
口口口口 |③---|
①②③口 |----|
22
口口口口 |①---|
口②口口 |----|
①口口口 |②---|
口口口口 |----|
23
口口口① |①---|
口口②口 |----|
口口口口 |②---|
口口口口 |----|
24
口口口口 |①---|
口口口口 |----|
口①口口 |②---|
②口口口 |----|
25
口口口口 |①---|
口口口口 |②---|
口口口口 |③---|
口③②① |----|
26
②③④口 |①---|
①口口口 |②---|
口口口口 |③---|
口口口口 |④---|
27
口口口① |①---|
口口口② |②---|
口口口③ |③---|
口口口④ |④---|
28
口口口口 |①---|
口口口口 |②---|
④口口口 |③---|
③②①口 |④---|
29
口口口口 |①---|
口①①口 |----|
口②②口 |②---|
口口口口 |----|
30
口口口④ |①---|
口口③口 |②---|
口②口口 |③---|
①口口口 |④---|
31
③②①口 |①---|
口④口口 |②---|
口口口口 |③---|
口口口口 |④---|
32
口口口口 |①---|
口口口口 |②---|
口口①口 |③---|
口④③② |④---|
33
口口口口 |①---|
②口口② |----|
口①①口 |②---|
口口口口 |----|
34
口①口口 |①---|
口口②口 |----|
口口口口 |②---|
口口口口 |----|
35
口口口口 |①---|
口口口口 |----|
口口口① |②---|
口口②口 |----|
36
口口口口 |①---|
②口口口 |----|
口①口口 |②---|
口口口口 |----|
37
①②③④ |①---|
口口口口 |②---|
口口口口 |③---|
口口口口 |④---|
38
口口口口 |①---|
口口①口 |----|
口②口口 |②---|
口口口口 |----|
39
口口口口 |①---|
口口口口 |----|
口口口口 |②---|
①口②口 |----|
40
口口口口 |①---|
口②口口 |----|
口口口① |②---|
口口口口 |----|
41
口口口① |①---|
口④②口 |②---|
口③口口 |③---|
口口口口 |④---|
42
口口③口 |①---|
④口口① |②---|
口口②口 |③---|
口口口口 |④---|
43
口③口口 |①---|
口口①口 |②---|
口②口口 |③---|
口口口口 |----|
44
口口口① |①---|
口口②口 |----|
口口口口 |②---|
口口口口 |----|
45
口口口口 |①---|
口口口口 |----|
③①口口 |②---|
②口口口 |③---|
46
口口口口 |①---|
口③口口 |②---|
口④①口 |③---|
口②口口 |④---|
47
口口口口 |①---|
口口③口 |②---|
口口口① |③---|
口口②口 |----|
48
①口口口 |①---|
口②口口 |----|
口口口口 |②---|
口口口口 |----|
49
口口口口 |①---|
口口口口 |----|
口口①口 |②---|
口口口② |----|
50
口口口口 |①---|
口口口口 |----|
口口口口 |----|
口①①口 |----|
51
①口口口 |①---|
口②口口 |----|
口口口口 |②---|
口口口口 |----|
52
口口口口 |①---|
口口口口 |----|
口口①口 |②---|
口口口② |----|
53
口口口口 |①---|
口口口口 |②---|
口口口口 |③---|
①②③口 |----|
54
口口口口 |①---|
口口口② |----|
口①口口 |②---|
口口口口 |----|
55
口口口① |①---|
口口②口 |----|
口口口口 |②---|
口口口口 |----|
56
口口口口 |①---|
口口口口 |----|
口①口口 |②---|
②口口口 |----|
57
口口口口 |①---|
口口口口 |②---|
④口口口 |③---|
口③②① |④---|
58
口口口口 |①---|
①口口口 |----|
口②口口 |②---|
口口口口 |----|
59
口口口口 |①---|
口口口口 |----|
口口口② |②---|
口口①口 |----|
60
口口①口 |①---|
口②口口 |----|
口口口口 |②---|
口口口口 |----|
61
口口口口 |①---|
口口口口 |②---|
①②③口 |③---|
口口口口 |----|
62
口口口口 |①---|
口口①口 |----|
口口口② |②---|
口口口口 |----|


不确定度: 0

最終更新:2013年03月23日 18:09