jumpin' pumpin'
Ryu☆

BASIC

Level: 3
BPM: 144
Notes: 246

1
口口口口 |----|
口口口口 |----|
口口口口 |----|
口口口口 |----|
2
口口口口 |①---|
②④口口 |②---|
口口口口 |③---|
①③口口 |④---|
3
口口口口 |①---|
口口②④ |②---|
口口口口 |③---|
口口①③ |④---|
4
口口口口 |①---|
②④口口 |②---|
口口口口 |③---|
①③口口 |④---|
5
口口口口 |①---|
口口②④ |②---|
口口口口 |③---|
口口①③ |④---|
6
②④口口 |①---|
口口口口 |②---|
①③口口 |③---|
口口口口 |④---|
7
口口②④ |①---|
口口口口 |②---|
口口①③ |③---|
口口口口 |④---|
8
②④口口 |①---|
口口口口 |②---|
①③口口 |③---|
口口口口 |④---|
9
口口②④ |①---|
口口口口 |②---|
口口①③ |③---|
口口口口 |④---|
10
口口口口 |①---|
①①①① |----|
口口口口 |----|
口口口口 |----|
11
口口口口 |①---|
口口口口 |②---|
④口口② |③---|
口③①口 |④---|
12
口口口口 |①---|
①②③④ |②---|
口口口口 |③---|
口口口口 |④---|
13
口口口口 |①---|
口口口口 |②---|
④③②① |③---|
口口口口 |④---|
14
口②④口 |①---|
①③口口 |②---|
口口口口 |③---|
口口口口 |④---|
15
口口口② |①---|
口口①③ |②---|
口口④口 |③---|
口口口口 |④---|
16
口口口口 |①---|
口③①口 |②---|
④②口口 |③---|
口口口口 |④---|
17
口口口口 |①---|
①③③① |----|
②口口② |②---|
口口口口 |③---|
18
口口口① |①---|
口④口② |②---|
口口③口 |③---|
口口口口 |④---|
19
①口口口 |①---|
②口④口 |②---|
口③口口 |③---|
口口口口 |④---|
20
口口口① |①---|
口④口② |②---|
口口③口 |③---|
口口口口 |④---|
21
①口口口 |①---|
②口④口 |②---|
口③口口 |③---|
口口口口 |④---|
22
④③②① |①---|
口口口口 |②---|
口口口口 |③---|
口口口口 |④---|
23
口口口口 |①---|
①口口④ |②---|
口②③口 |③---|
口口口口 |④---|
24
口口口口 |①---|
口③②口 |②---|
④口口① |③---|
口口口口 |④---|
25
口口口口 |①---|
口口口口 |②---|
口口口口 |③---|
①②③④ |④---|
26
口④口口 |①---|
口③口口 |②---|
口②①口 |③---|
口口口口 |④---|
27
口口①口 |①---|
口口②口 |②---|
口④③口 |③---|
口口口口 |④---|
28
③④口口 |①---|
②口口口 |②---|
①口口口 |③---|
口口口口 |④---|
29
口口①② |①---|
口口口③ |②---|
口口口④ |③---|
口口口口 |④---|
30
口口口口 |①---|
口口口口 |----|
②口口② |②---|
①口口① |----|
31
②口口② |①---|
①口口① |----|
口口口口 |②---|
口口口口 |----|
32
④口口④ |①---|
③口口③ |②---|
②口口② |③---|
①口口① |④---|
33
口④④口 |①---|
口③③口 |②---|
口②②口 |③---|
口①①口 |④---|
34
口③④口 |①---|
②口口口 |②---|
①口口口 |③---|
口口口口 |④---|
35
口口口口 |①---|
口口口① |②---|
口口口② |③---|
口④③口 |④---|
36
口口口口 |①---|
口④③口 |②---|
口①②口 |③---|
口口口口 |④---|
37
口口口③ |①---|
口口②④ |②---|
口①口口 |③---|
口口口口 |④---|
38
口口①口 |①---|
口②口口 |②---|
口口③口 |③---|
口④口口 |④---|
39
口④口口 |①---|
口口③口 |②---|
口②口口 |③---|
口口①口 |④---|
40
口口口口 |①---|
口①口口 |②---|
②口口口 |③---|
③④口口 |④---|
41
口口口口 |①---|
口口④口 |②---|
口口口③ |③---|
口口①② |④---|
42
①口口① |①---|
口④口② |②---|
口口③口 |③---|
口口口口 |④---|
43
①口口① |①---|
②口④口 |②---|
口③口口 |③---|
口口口口 |④---|
44
①口口① |①---|
口④口② |②---|
口口③口 |③---|
口口口口 |④---|
45
①口口① |①---|
②口④口 |②---|
口③口口 |③---|
口口口口 |④---|
46
口口口口 |①---|
①②口① |②---|
口口③口 |③---|
口④口口 |④---|
47
口口口口 |①---|
口口④口 |②---|
口③口口 |③---|
①口②① |④---|
48
口口口口 |①---|
①口口① |----|
口②②口 |②---|
口口口口 |----|
49
③口口③ |①---|
①②②① |----|
口口口口 |②---|
口口口口 |③---|
50
口①口口 |①---|
口②口口 |②---|
口③口口 |③---|
口④口口 |④---|
51
口口④口 |①---|
口口③口 |②---|
口口②口 |③---|
口口①口 |④---|
52
口①口口 |①---|
口②口口 |②---|
口③口口 |③---|
口④口口 |④---|
53
口口④口 |①---|
口口③口 |②---|
口口②口 |③---|
口口①口 |④---|
54
口口口口 |①---|
口口②① |②---|
口口④③ |③---|
口口口口 |④---|
55
口口口口 |①---|
口口口口 |②---|
口口口口 |③---|
④③②① |④---|
56
口口口口 |①---|
③④口口 |②---|
①②口口 |③---|
口口口口 |④---|
57
口口口口 |----|
口②②口 |----|
口①①口 |①---|
口口口口 |②---|
58
口口口口 |①---|
①口口① |----|
①口口① |----|
口口口口 |----|


不確定度: 0

最終更新:2013年03月17日 02:16