jumpin' pumpin'
Ryu☆

ADVANCED

Level: 6
BPM: 144
Notes: 482

1
口口口口 |----|
口口口口 |----|
口口口口 |----|
口口口口 |----|
2
③⑥口口 |①--②|
口口口口 |--③-|
②⑤口口 |④--⑤|
①④口口 |--⑥-|
3
口口③⑥ |①--②|
口口口口 |--③-|
口口②⑤ |④--⑤|
口口①④ |--⑥-|
4
③⑥口口 |①--②|
口口口口 |--③-|
②⑤口口 |④--⑤|
①④口口 |--⑥-|
5
口口③⑥ |①--②|
口口口口 |--③-|
口口②⑤ |④--⑤|
口口①④ |--⑥-|
6
口口口口 |①--②|
口口口口 |--③-|
④⑤口⑥ |④--⑤|
①②口③ |--⑥-|
7
④⑤口⑥ |①--②|
①②口③ |--③-|
口口口口 |④--⑤|
口口口口 |--⑥-|
8
口口口口 |①--②|
口口口口 |--③-|
④⑤口⑥ |④--⑤|
①②口③ |--⑥-|
9
④⑤口⑥ |①--②|
①②口③ |--③-|
口口口口 |④--⑤|
口口口口 |--⑥-|
10
口口口口 |①---|
口口口口 |----|
①①①① |----|
口口口口 |----|
11
④①①④ |--①-|
口口口口 |②---|
口口口口 |③-④-|
③②②③ |----|
12
口口④口 |①---|
③③口口 |②---|
口口②② |③---|
口①口口 |④---|
13
①口口口 |①---|
口口②② |②---|
③③口口 |③---|
口口口④ |④---|
14
④④口口 |①---|
③③口口 |②---|
②②口口 |③---|
①①口口 |④---|
15
口口①① |①---|
口口②② |②---|
口口③③ |③---|
口口④④ |④---|
16
口④③口 |①---|
口②口③ |②---|
①口②④ |③---|
口①口口 |④---|
17
①口口⑤ |①---|
③口口口 |----|
口口口④ |②-③-|
②口口① |④-⑤-|
18
①口口⑤ |①--②|
口①口③ |--③-|
口④口⑥ |④--⑤|
④口口② |--⑥-|
19
③口③口 |①---|
口②口② |②--③|
口口口口 |----|
口①①口 |----|
20
⑤口口① |①--②|
③口①口 |--③-|
⑥口④口 |④--⑤|
②口口④ |--⑥-|
21
④口④口 |①---|
口③口③ |②--③|
口②②口 |----|
口①①口 |④---|
22
口①口⑤ |①--②|
①口口③ |--③-|
④口口⑥ |④--⑤|
口④口② |--⑥-|
23
口③口③ |①---|
②口②口 |②--③|
口口口口 |----|
①口口① |----|
24
⑤口①口 |①--②|
③口口① |--③-|
⑥口口④ |④--⑤|
②口④口 |--⑥-|
25
④口④口 |①---|
口③口③ |②--③|
口②②口 |----|
①口口① |④---|
26
⑤口口② |①--②|
口④①口 |--③-|
⑥①④③ |④--⑤|
口口口口 |--⑥-|
27
口口口口 |①--②|
⑥④①③ |--③-|
口①④口 |④--⑤|
⑤口口② |--⑥-|
28
口口②口 |①--②|
④⑤口① |--③-|
①口③④ |④--⑤|
口⑥口口 |--⑥-|
29
口⑥口口 |①--②|
④口③① |--③-|
①⑤口④ |④--⑤|
口口②口 |--⑥-|
30
⑤口口③ |①--②|
②口口⑥ |--③-|
口④①口 |④--⑤|
口①④口 |--⑥-|
31
口④①口 |①--②|
口①④口 |--③-|
⑤口口③ |④--⑤|
②口口⑥ |--⑥-|
32
口口口口 |①---|
③①②④ |②---|
④②①③ |③---|
口口口口 |④---|
33
⑤口口⑤ |①-②-|
口⑥⑥⑨ |③④-⑤|
⑧③④口 |-⑥-⑦|
①⑦⑦② |⑧-⑨-|
34
口⑤⑥④ |①②-③|
③⑦⑧⑨ |-④⑤⑥|
⑦⑧⑨② |⑦--⑧|
①口口口 |--⑨-|
35
①③②④ |①-②-|
口口口口 |③④-⑤|
⑤口口⑤ |----|
口口口口 |----|
36
④⑥⑤口 |①②-③|
⑨⑧⑦③ |-④⑤⑥|
②⑨⑧⑦ |⑦--⑧|
口口口① |--⑨-|
37
口口口⑦ |①-②-|
⑥⑨⑨口 |③④-⑤|
口⑧⑧⑤ |-⑥-⑦|
④②③① |⑧-⑨-|
38
⑤口⑨④ |①②-③|
③⑨⑧⑥ |-④⑤⑥|
口⑧⑦② |⑦--⑧|
①⑦口口 |--⑨-|
39
⑤口口⑤ |①-②-|
②口口④ |③④-⑤|
①口口③ |----|
口口口口 |----|
40
④⑦口⑤ |①②-③|
⑥⑧⑦③ |-④⑤⑥|
②⑨⑧口 |⑦--⑧|
口口⑨① |--⑨-|
41
口口口口 |①-②-|
④口口② |③④-⑤|
③口口①
口口口⑤

⑨⑧⑧⑨
口口口口
口口口⑦ |-⑥-⑦|
⑥口口口 |⑧-⑨-|
42
口口口口 |①②-③|
口③口⑥ |-④⑤⑥|
①口②口
⑤口④口

口口口口
⑦口⑧口
口⑦⑨⑧ |⑦--⑧|
口⑨口口 |--⑨-|
43
口①②口 |①-②-|
⑤口口⑤ |③④-⑤|
③口口④ |----|
口口口口 |----|
44
口口口口 |①②-③|
口③口⑥ |-④⑤⑥|
①口②口
⑤口④口

口口口口
⑦口⑧口
口⑦⑨⑧ |⑦--⑧|
口⑨口口 |--⑨-|
45
口①②口 |①-②-|
口⑤口口 |③④-⑤|
③口口④
口口口口

⑦⑨⑨⑥
口口口口
口口口口 |-⑥-⑦|
⑧口口⑧ |⑧-⑨-|
46
口口口口 |①②-③|
口③口⑥ |-④⑤⑥|
①口②口
⑤口④口

口口口口
⑦口⑧口
口⑦⑨⑧ |⑦--⑧|
口⑨口口 |--⑨-|
47
口①②口 |①-②-|
⑤口口⑤ |③④-⑤|
③口口④ |----|
口口口口 |----|
48
口口口口 |①②-③|
口③口⑥ |-④⑤⑥|
①口②口
⑤口④口

口口口口
⑦口⑧口
口⑦⑨⑧ |⑦--⑧|
口⑨口口 |--⑨-|
49
口①②口 |①-②-|
口⑤口口 |③④-⑤|
③口口④
口口口口

⑦⑨⑨⑥
口口口口
口⑧⑧口 |-⑥-⑦|
口口口口 |⑧-⑨-|
50
口口⑥⑥ |①--②|
④④口⑤ |--③-|
口口③③ |④--⑤|
①①口② |--⑥-|
51
口口⑥⑥ |①--②|
④④口⑤ |--③-|
口口③③ |④--⑤|
①①口② |--⑥-|
52
⑥⑥口口 |①--②|
⑤口④④ |--③-|
③③口口 |④--⑤|
②口①① |--⑥-|
53
⑥⑥口口 |①--②|
⑤口④④ |--③-|
③③口口 |④--⑤|
②口①① |--⑥-|
54
⑥⑤③② |①--②|
⑥口③口 |--③-|
口④口① |④--⑤|
口④口① |--⑥-|
55
⑥⑤③② |①--②|
⑥口③口 |--③-|
口④口① |④--⑤|
口④口① |--⑥-|
56
⑥⑥③③ |①--②|
口口口口 |--③-|
⑤⑤②② |④--⑤|
④口口① |--⑥-|
57
口口口口 |①--②|
③②③② |--③-|
口口口口
口①①口

④④④④
口口口口
口口口口 |④---|
⑤⑤⑤⑤ |⑤---|
58
口口口口 |①---|
口①①口 |----|
口①①口 |----|
口口口口 |----|


不確定度: 0

最終更新:2013年03月17日 02:16