jumpin' pumpin'
Ryu☆

EXTREME

Level: 9
BPM: 144
Notes: 694

1
口口口口 |----|
口口口口 |----|
口口口口 |----|
口口口口 |----|
2
⑨口⑩口 |①-②③|
⑥⑦口⑧ |-④⑤-|
④口⑤口 |⑥-⑦⑧|
①②口③ |-⑨⑩-|
3
⑨口⑩口 |①-②③|
⑥⑦口⑧ |-④⑤-|
④口⑤口 |⑥-⑦⑧|
①②口③ |-⑨⑩-|
4
口⑩口⑨ |①-②③|
⑦口⑧⑥ |-④⑤-|
口⑤口④ |⑥-⑦⑧|
②口③① |-⑨⑩-|
5
口⑩口⑨ |①-②③|
⑦口⑧⑥ |-④⑤-|
口⑤口④ |⑥-⑦⑧|
②口③① |-⑨⑩-|
6
③口⑧口 |①-②③|
口⑤口⑩ |-④⑤-|
②口⑦口 |⑥-⑦⑧|
①④⑥⑨ |-⑨⑩-|
7
③口⑧口 |①-②③|
口⑤口⑩ |-④⑤-|
②口⑦口 |⑥-⑦⑧|
①④⑥⑨ |-⑨⑩-|
8
①④⑥⑨ |①-②③|
②口⑦口 |-④⑤-|
口⑤口⑩ |⑥-⑦⑧|
③口⑧口 |-⑨⑩-|
9
④口口口 |①-②③|
口③口口 |-④⑤-|
⑤口②口
口口口①

⑬⑫⑪⑩
口口口口
口口口口 |⑥⑦⑧⑨|
⑥⑦⑧⑨ |⑩⑪⑫⑬|
10
口口口口 |①---|
①①①① |----|
①①①① |----|
口口口口 |----|
11
④④④② |--①-|
①②③② |②---|
①④①② |③-④-|
①③③③ |----|
12
口口⑧① |①-②-|
口口⑦② |③-④-|
口口⑥③ |⑤-⑥-|
口口⑤④ |⑦-⑧-|
13
⑧①口口 |①-②-|
⑦②口口 |③-④-|
⑥③口口 |⑤-⑥-|
⑤④口口 |⑦-⑧-|
14
口口口口 |①-②-|
口口口口 |③-④-|
⑤⑥⑦⑧ |⑤-⑥-|
④③②① |⑦-⑧-|
15
⑤⑥⑦⑧ |①-②-|
④③②① |③-④-|
口口口口 |⑤-⑥-|
口口口口 |⑦-⑧-|
16
④④⑧⑧ |①-②-|
③③⑦⑦ |③-④-|
②②⑥⑥ |⑤-⑥-|
①①⑤⑤ |⑦-⑧-|
17
口③口口 |--①②|
①口口口 |-③-④|
口口口口
②口④口

⑤口⑤口
⑧⑤口⑧
⑦口⑥⑦ |⑤-⑥-|
口⑥口⑥ |⑦-⑧-|
18
④①⑥⑦ |①②-③|
口③⑤⑨ |-④⑤⑥|
口②⑧⑪ |⑦-⑧⑨|
口口⑩口 |-⑩⑪-|
19
②口口④ |①-②-|
②口③口 |③④-⑤|
⑤⑤口口 |----|
⑤⑤口① |----|
20
④①⑥⑦ |①②-③|
口③⑤⑨ |-④⑤⑥|
口②⑧⑪ |⑦-⑧⑨|
口口⑩口 |-⑩⑪-|
21
②口口④ |①-②-|
②口③口 |③④-⑤|
口口口口
口口⑤①

口口口口
⑨口口⑦
⑥口口⑦ |-⑥-⑦|
⑧⑧口口 |⑧-⑨-|
22
④①⑥⑦ |①②-③|
口③⑤⑨ |-④⑤⑥|
口②⑧⑪ |⑦-⑧⑨|
口口⑩口 |-⑩⑪-|
23
②口口④ |①-②-|
②口③口 |③④-⑤|
⑤⑤口口 |----|
⑤⑤口① |----|
24
④①⑥⑦ |①②-③|
口③⑤⑨ |-④⑤⑥|
口②⑧⑪ |⑦-⑧⑨|
口口⑩口 |-⑩⑪-|
25
②口口④ |①-②-|
②口③口 |③④-⑤|
口口口口
口口⑤①

口口口口
⑨口口⑦
⑥口口⑦ |-⑥-⑦|
⑧⑧口口 |⑧-⑨-|
26
⑧⑩口口 |①②-③|
口⑥⑤④ |-④⑤⑥|
口①②口 |⑦-⑧⑨|
⑦⑨⑪③ |-⑩⑪-|
27
口口⑩⑧ |①②-③|
④⑤⑥口 |-④⑤⑥|
口②①口 |⑦-⑧⑨|
③⑪⑨⑦ |-⑩⑪-|
28
⑧⑩口口 |①②-③|
口⑥⑤④ |-④⑤⑥|
口①②口 |⑦-⑧⑨|
⑦⑨⑪③ |-⑩⑪-|
29
口口⑩⑧ |①②-③|
④⑤⑥口 |-④⑤⑥|
口②①口 |⑦-⑧⑨|
③⑪⑨⑦ |-⑩⑪-|
30
⑦⑧口⑨ |①②-③|
口④⑤⑥ |-④⑤⑥|
①②口③ |⑦⑧-⑨|
口⑩⑪⑫ |-⑩⑪⑫|
31
⑨口⑧⑦ |①②-③|
⑥⑤④口 |-④⑤⑥|
③口②① |⑦⑧-⑨|
⑫⑪⑩口 |-⑩⑪⑫|
32
口③口⑥ |①②-③|
②口⑤口 |④⑤-⑥|
①口④口
口口口口

口口口口
⑬⑪口⑧
⑨口口⑫ |⑦⑧⑨⑩|
口⑦⑩⑭ |⑪⑫⑬⑭|
33
⑥②②⑥ |①-②-|
⑧⑦⑦⑨ |③④-⑤|
⑤①①⑤ |-⑥-⑦|
口③④口 |⑧-⑨-|
34
口口②④ |①②-③|
⑤⑪⑧口 |-④⑤⑥|
⑨③口⑥ |⑦-⑧⑨|
①⑦口⑩ |-⑩⑪-|
35
①⑤⑤② |①-②-|
①口口② |③④-⑤|
口④④口
口③③口

⑦口口口
口口口⑦
⑥口口口 |--⑥-|
口口口⑥ |--⑦-|
36
口口②④ |①②-③|
⑤⑪⑧口 |-④⑤⑥|
⑨③口⑥ |⑦-⑧⑨|
①⑦口⑩ |-⑩⑪-|
37
①⑤⑤② |①-②-|
①口口② |③④-⑤|
口④④口
口③③口

⑨口口口
⑧⑦⑦⑨
⑥口口⑧ |-⑥-⑦|
口口口⑥ |⑧-⑨-|
38
口口②④ |①②-③|
⑤⑪⑧口 |-④⑤⑥|
⑨③口⑥ |⑦-⑧⑨|
①⑦口⑩ |-⑩⑪-|
39
①⑤⑤② |①-②-|
①口口② |③④-⑤|
口④④口
口③③口

⑦口口口
口口口⑦
⑥口口口 |--⑥-|
口口口⑥ |--⑦-|
40
口口②④ |①②-③|
⑤⑪⑧口 |-④⑤⑥|
⑨③口⑥ |⑦-⑧⑨|
①⑦口⑩ |-⑩⑪-|
41
①⑤⑤② |①-②-|
①口口② |③④-⑤|
口④④口
口③③口

⑨口口口
⑧⑦⑦⑨
⑥口口⑧ |-⑥-⑦|
口口口⑥ |⑧-⑨-|
42
口口③③ |①②-③|
口⑥口口 |-④⑤⑥|
口②口⑤
①④口口

⑦⑦口口
口口⑧⑪
⑩口口口 |⑦-⑧⑨|
⑩口口⑨ |-⑩⑪-|
43
⑤④②⑤ |①-②-|
①④口口 |③④-⑤|
口①口③
口口③口

口口口口
⑧口⑪⑦
⑩口⑫口 |⑥⑦⑧⑨|
口⑥⑬⑨ |⑩⑪⑫⑬|
44
口口③③ |①②-③|
口⑥口口 |-④⑤⑥|
口②口⑤
①④口口

⑦⑦口口
口口⑧⑪
⑩口口口 |⑦-⑧⑨|
⑩口口⑨ |-⑩⑪-|
45
口④②口 |①-②-|
①④口口 |③④-⑤|
口①⑤③
口口③⑤

⑧口口口
⑧口⑨⑦
⑥口口口 |-⑥-⑦|
口口⑨口 |⑧-⑨-|
46
口口③③ |①②-③|
口⑥口口 |-④⑤⑥|
口②口⑤
①④口口

⑦⑦口口
口口⑧⑪
⑩口口口 |⑦-⑧⑨|
⑩口口⑨ |-⑩⑪-|
47
⑤④②⑤ |①-②-|
①④口口 |③④-⑤|
口①口③
口口③口

口口口口
⑧口⑪⑦
⑩口⑫口 |⑥⑦⑧⑨|
口⑥⑬⑨ |⑩⑪⑫⑬|
48
口口③③ |①②-③|
口⑥口口 |-④⑤⑥|
口②口⑤
①④口口

⑦⑦口口
口口⑧⑪
⑩口口口 |⑦-⑧⑨|
⑩口口⑨ |-⑩⑪-|
49
⑤④②⑤ |①-②-|
①④口口 |③④-⑤|
口①口③
口口③口

口口口口
口口口⑨
口⑧口口 |-⑥-⑦|
口⑦口⑥ |⑧-⑨-|
50
③⑤⑤⑥ |①-②③|
③⑨②⑥ |-④⑤-|
①⑦④⑧ |⑥-⑦⑧|
①⑩⑩⑧ |-⑨⑩-|
51
③⑤⑤⑥ |①-②③|
③⑨②⑥ |-④⑤-|
①⑦④⑧ |⑥-⑦⑧|
①⑩⑩⑧ |-⑨⑩-|
52
③⑤⑤⑥ |①-②③|
③⑨②⑥ |-④⑤-|
①⑦④⑧ |⑥-⑦⑧|
①⑩⑩⑧ |-⑨⑩-|
53
③⑤⑤⑥ |①-②③|
③⑨②⑥ |-④⑤-|
①⑦④⑧ |⑥-⑦⑧|
①⑩⑩⑧ |-⑨⑩-|
54
①④③口 |①-②-|
③口口② |③-④-|
口口①口
口口口口

口口口口
口⑥⑦口
口⑤⑧口 |⑤-⑥-|
⑦口口⑤ |⑦-⑧-|
55
⑤④④⑤ |①-②-|
③⑥⑥③ |③-④-|
②⑦⑦② |⑤-⑥-|
⑧①①⑧ |⑦-⑧-|
56
③口口⑥ |①-②-|
⑤⑤⑧② |③-④-|
口口④口 |⑤-⑥-|
⑦①①口 |⑦-⑧-|
57
⑧②④口 |①-②-|
口口口⑧ |③-④-|
口⑤⑥⑦ |⑤⑥⑦-|
口①③口 |⑧---|
58
口①①① |①---|
①①①口 |----|
口口口口 |----|
口口口口 |----|


不確定度: 0

最終更新:2013年03月17日 02:16