Lapis Lazuli
Another Infinity feat. Mayumi Morinaga

BASIC

Level: 2
BPM: 140
Notes: 168

1
口口口口 |----|
口口口口 |----|
口口口口 |----|
口口口口 |----|
2
口口口口 |①---|
口②口口 |②---|
①口③口 |③---|
口口口④ |④---|
3
口口口口 |①---|
口口②口 |②---|
口③口① |③---|
④口口口 |④---|
4
口口口口 |①---|
口②口口 |②---|
①口③口 |③---|
口口口④ |④---|
5
口口口口 |①---|
口口②口 |②---|
口③口① |③---|
④口口口 |④---|
6
口口口④ |①---|
①口③口 |②---|
口②口口 |③---|
口口口口 |④---|
7
④口口口 |①---|
口③口① |②---|
口口②口 |③---|
口口口口 |④---|
8
口①①口 |①---|
口口口口 |----|
口口口口 |----|
口口口口 |----|
9
口②口口 |①---|
③口①口 |②---|
口④口口 |③---|
口口口口 |④---|
10
口口口口 |①---|
口①①口 |----|
口口口口 |----|
口口口口 |----|
11
口口口口 |----|
口口口口 |----|
口①①口 |----|
口口口口 |①---|
12
口口口口 |----|
口口口口 |----|
口口口口 |----|
口口口口 |----|
13
口口口口 |----|
口口口口 |----|
口口口口 |----|
口口口口 |----|
14
口口口口 |①---|
口口口口 |----|
口①口口 |----|
口口口口 |----|
15
口口口口 |①---|
口口口口 |----|
口口①口 |----|
口口口口 |----|
16
②口口口 |①---|
口①口口 |----|
口口口口 |②---|
口口口口 |----|
17
口口口② |①---|
口口①口 |----|
口口口口 |②---|
口口口口 |----|
18
口口口口 |①---|
②①①口 |----|
口③口口 |②---|
口口口口 |③---|
19
口口口口 |①---|
口口①口 |----|
口口口口 |----|
口口口口 |----|
20
口口口口 |----|
口口口① |----|
口口②口 |①---|
口口口口 |②---|
21
口口口口 |①---|
口①口④ |②---|
②口③口 |③---|
口口口口 |④---|
22
口口口口 |①---|
口口口口 |②---|
②①口口 |③---|
口③④口 |④---|
23
口口口口 |①---|
口口口口 |----|
口口口① |----|
口口口口 |----|
24
口③②口 |①---|
④口口① |②---|
口口口口 |③---|
口口口口 |④---|
25
口口口口 |①---|
口口口口 |②---|
①口口④ |③---|
口②③口 |④---|
26
口口口口 |----|
①口口口 |----|
口②口口 |①---|
口口口口 |②---|
27
口口口口 |①---|
口口①口 |----|
口口口口 |----|
口口口口 |----|
28
口口口口 |----|
口口口① |----|
口口②口 |①---|
口口口口 |②---|
29
口口口口 |①---|
口①口④ |②---|
②口③口 |③---|
口口口口 |④---|
30
口口口口 |①---|
口口口口 |②---|
②①口口 |③---|
口③④口 |④---|
31
口口口口 |①---|
口口口口 |②---|
口口②① |----|
口口口口 |----|
32
口③②口 |①---|
④口口① |②---|
口口口口 |③---|
口口口口 |④---|
33
口口口口 |①---|
口口口口 |②---|
①口口④ |③---|
口②③口 |④---|
34
口口口口 |①---|
口口口口 |----|
口口口口 |----|
口口口① |----|
35
口口口口 |----|
口口口口 |----|
口口口口 |----|
口口口口 |----|
36
口口口口 |①---|
口②口口 |②---|
①口③口 |③---|
口口④④ |④---|
37
口口口口 |①---|
口口②口 |②---|
口③口① |③---|
④④口口 |④---|
38
口口口口 |①---|
口②口口 |②---|
①口③口 |③---|
口口④④ |④---|
39
口口口口 |①---|
口口②口 |②---|
口③口① |③---|
④④口口 |④---|
40
口口④④ |①---|
①口③口 |②---|
口②口口 |③---|
口口口口 |④---|
41
④④口口 |①---|
口③口① |②---|
口口②口 |③---|
口口口口 |④---|
42
口口口口 |①---|
①口口① |----|
口口口口 |----|
口口口口 |----|
43
口口口口 |----|
口口口口 |----|
口口口口 |----|
口口口口 |----|
44
口口口口 |①---|
口②口口 |②---|
①口③口 |③---|
口口④④ |④---|
45
口口口口 |①---|
口口②口 |②---|
口③口① |③---|
④④口口 |④---|
46
口口口口 |①---|
口②口口 |②---|
①口③口 |③---|
口口④④ |④---|
47
口口口口 |①---|
口口②口 |②---|
口③口① |③---|
④④口口 |④---|
48
口口④④ |①---|
①口③口 |②---|
口②口口 |③---|
口口口口 |④---|
49
④④口口 |①---|
口③口① |②---|
口口②口 |③---|
口口口口 |④---|
50
口口口口 |①---|
①口口① |----|
口口口口 |----|
口口口口 |----|
51
口口口口 |①---|
口④③口 |②---|
口①②口 |③---|
口口口口 |④---|
52
①口口① |①---|
口口口口 |----|
口口口口 |----|
口口口口 |----|
53
口口口口 |----|
口口口口 |----|
口①①口 |----|
口口口口 |①---|
54
口口口口 |----|
口口口口 |----|
口口口口 |----|
口口口口 |----|
55
口口口口 |----|
口口口口 |----|
口口口口 |----|
口口口口 |----|
56
口口口口 |①---|
口口口口 |----|
口①口口 |----|
口口口口 |----|
57
口口口口 |①---|
口口口口 |----|
口口①口 |----|
口口口口 |----|
58
②口口口 |①---|
口①口口 |----|
口口口口 |②---|
口口口口 |----|
59
口口口② |①---|
口口①口 |----|
口口口口 |②---|
口口口口 |----|
60
口口口口 |①---|
口口口口 |----|
口①①口 |----|
口口口口 |----|


不確定度: 0

最終更新:2013年03月17日 02:15