Lapis Lazuli
Another Infinity feat. Mayumi Morinaga

ADVANCED

Level: 5
BPM: 140
Notes: 366

1
口口口口 |----|
口口口口 |----|
口口口口 |----|
口口口口 |----|
2
④口②② |①---|
①口③③ |②-③-|
④口口口 |--④-|
①口口口 |----|
3
口口②② |①---|
①口③③ |②-③-|
口口口口 |--④-|
①④口④ |----|
4
④口②② |①---|
①口③③ |②-③-|
④⑤口口 |--④-|
①口口口 |--⑤-|
5
口①口③ |①-②-|
口口②口 |③-④-|
口口口④ |--⑤-|
口⑤⑤口 |----|
6
④口②② |①---|
①口③③ |②-③-|
④口口口 |--④-|
①口口口 |----|
7
口口②② |①---|
①口③③ |②-③-|
口口口口
①口口口

口口⑤口
口⑤口口
口④口口 |--④-|
口口④口 |--⑤-|
8
口口口口 |----|
口口口口 |----|
口口口口 |----|
口口口口 |----|
9
口①④口 |①---|
②⑤②⑤ |②-③-|
口①④口 |--④-|
口③口③ |--⑤-|
10
①口口① |①---|
口②②口 |----|
口口口口 |②---|
口口口口 |----|
11
口口口口 |①---|
口③口口 |----|
①口③① |②---|
口②②口 |③---|
12
①口口① |①---|
口②②口 |----|
口口口口 |②---|
口口口口 |----|
13
口口口口 |①---|
口口口口 |----|
①口口① |②---|
口②②口 |----|
14
①口口① |①---|
口②②口 |----|
口口口口 |②---|
口口口口 |----|
15
口口口口 |①---|
口口口口 |----|
①口口① |②---|
口②②口 |----|
16
①口口口 |①---|
口③口口 |②---|
口口④口 |③---|
口口口② |④---|
17
口④⑧口 |①-②-|
口⑦③口 |③-④-|
口②⑥口 |⑤-⑥-|
口⑤①口 |⑦-⑧-|
18
①口口① |①---|
口口口口 |--②-|
口②②口
口口口口

⑤③③⑤
口口口口
④口口④ |③---|
口口口口 |④-⑤-|
19
口口口口 |----|
口口口口 |----|
口口口口 |----|
口口口口 |----|
20
①口口① |①---|
口口口口 |--②-|
口②②口
口口口口

⑤③③⑤
口口口口
④口口④ |③---|
口口口口 |④-⑤-|
21
口③③口 |----|
口②②口 |①---|
口①①口 |②---|
口口口口 |③---|
22
口口口口 |①---|
①口口① |②-③-|
⑤②②⑤ |----|
④③③④ |④-⑤-|
23
口口口口 |----|
口口口口 |----|
口①①口 |----|
口口口口 |--①-|
24
口口口口 |①---|
口①①口 |②-③-|
③口口③
②口口②

口口口口
口⑤⑤口
口④④口 |----|
口口口口 |④-⑤-|
25
口口口口 |----|
②口③① |①---|
口③口口 |②---|
①口口② |③---|
26
①口口① |①---|
口口口口 |--②-|
口②②口
口口口口

⑤③③⑤
口口口口
④口口④ |③---|
口口口口 |④-⑤-|
27
口口口口 |----|
口口口口 |----|
口口口口 |----|
口口口口 |----|
28
①口口① |①---|
口口口口 |--②-|
口②②口
口口口口

⑤③③⑤
口口口口
④口口④ |③---|
口口口口 |④-⑤-|
29
口③③口 |----|
口②②口 |①---|
口①①口 |②---|
口口口口 |③---|
30
口口口口 |①---|
①口口② |②---|
口口口口
②口口①

口口口口
⑤③④⑤
口④③口 |③---|
口口口口 |④-⑤-|
31
口口口口 |--①-|
口口口口 |②---|
口③③口 |----|
①②②① |--③-|
32
口口口口 |①---|
口①①口 |②-③-|
③④④③ |----|
②口口② |④---|
33
①口口② |①---|
④⑤⑤④ |②---|
③口口③ |③---|
②口口① |④-⑤-|
34
①①①① |①---|
口口口口 |----|
口口口口 |----|
口口口口 |----|
35
口口口口 |----|
口口口口 |----|
口口口口 |----|
口口口口 |----|
36
④口②② |①---|
①口③③ |②-③-|
④口口口 |--④-|
①口口口 |----|
37
口口②② |①---|
①口③③ |②-③-|
口口口口 |--④-|
①④口④ |----|
38
④口②② |①---|
①口③③ |②-③-|
④⑤口口 |--④-|
①口口口 |--⑤-|
39
口①口③ |①-②-|
口口②口 |③-④-|
口口口④ |--⑤-|
口⑤⑤口 |----|
40
④口②② |①---|
①口③③ |②-③-|
④口口口 |--④-|
①口口口 |----|
41
口口②② |①---|
①口③③ |②-③-|
口口口口
①口口口

口口⑤口
口⑤口口
口④口口 |--④-|
口口④口 |--⑤-|
42
口口口口 |----|
口口口口 |----|
口口口口 |----|
口口口口 |----|
43
①口口① |①---|
口口口口 |----|
口口口口 |----|
口口口口 |----|
44
④口②② |①---|
①口③③ |②-③-|
④口口口 |--④-|
①口口口 |----|
45
口口②② |①---|
①口③③ |②-③-|
口口口口 |--④-|
①④口④ |----|
46
④口②② |①---|
①口③③ |②-③-|
④⑤口口 |--④-|
①口口口 |--⑤-|
47
口①口② |--①-|
口口口口 |--②-|
口口口③ |--③-|
口口口口 |----|
48
④口②② |①---|
①口③③ |②-③-|
④口⑤口 |--④-|
①口口⑤ |--⑤-|
49
口口②② |①---|
口口③③ |②-③-|
口①口口
①口口口

口口⑤口
口⑤口口
口④口口 |--④-|
口口④口 |--⑤-|
50
①口口① |①---|
口口口口 |----|
口口口口 |----|
口口口口 |----|
51
口④④口 |①---|
口①①口 |②-③-|
③⑤⑤③ |--④-|
口②②口 |--⑤-|
52
①口口① |①---|
口②②口 |----|
口口口口 |②---|
口口口口 |----|
53
口口口口 |①---|
口口③口 |----|
①③口① |②---|
口②②口 |③---|
54
①口口① |①---|
口②②口 |----|
口口口口 |②---|
口口口口 |----|
55
口口口口 |①---|
口口口口 |----|
①口口① |②---|
口②②口 |----|
56
①口口① |①---|
口②②口 |----|
口口口口 |②---|
口口口口 |----|
57
口口口口 |①---|
口口口口 |----|
①口口① |②---|
口②②口 |----|
58
①口口口 |①---|
口③口口 |②---|
口口④口 |③---|
口口口② |④---|
59
口④⑧口 |①-②-|
口⑦③口 |③-④-|
口②⑥口 |⑤-⑥-|
口⑤①口 |⑦-⑧-|
60
①口口① |①---|
口口口口 |----|
口口口口 |----|
口口口口 |----|


不確定度: 0

最終更新:2013年03月17日 02:15