Lapis Lazuli
Another Infinity feat. Mayumi Morinaga

EXTREME

Level: 8
BPM: 140
Notes: 630

1
口口口口 |----|
口口口口 |----|
口口口口 |----|
口口口口 |----|
2
口②④口 |①---|
①口①口 |②-③-|
口②④口 |--④-|
③口③口 |----|
3
口②④口 |①---|
①口①口 |②-③-|
口②④口 |--④-|
③口③口 |----|
4
④口②口 |①---|
口③口③ |②-③-|
④口②口 |--④-|
⑤①⑤① |--⑤-|
5
口①口口 |①-②-|
②④②④ |③-④-|
口①口口
口③口口

⑥口口⑥
口口口口
⑤⑤口⑤ |--⑤-|
口口口⑤ |⑥---|
6
口③口口 |①---|
②④②④ |②-③-|
口③⑤口 |--④-|
①口①口 |⑤---|
7
②口②口 |①---|
③口③口 |②-③-|
口口口口
口①口①

口⑥⑥口
口口口口
⑤⑥⑥口 |--④-|
④口口④ |⑤-⑥-|
8
口口口口 |①-②③|
①口②③ |④-⑤⑥|
口口口口
④口⑤⑥

口口口口
⑩口⑪⑫
⑧⑨口⑦ |⑦-⑧⑨|
口口口口 |⑩-⑪⑫|
9
口③③口 |①---|
④口口④ |②-③-|
②口口② |--④-|
⑤①①⑤ |--⑤-|
10
⑪⑬⑫⑩ |①-②③|
⑧⑨⑦口 |④-⑤⑥|
⑤⑥③② |⑦-⑧⑨|
口①④口 |⑩⑪⑫⑬|
11
⑪⑬⑫⑩ |①-②③|
⑧⑨⑦口 |④-⑤⑥|
⑤⑥③② |⑦-⑧⑨|
口①④口 |⑩⑪⑫⑬|
12
⑪⑬⑫⑩ |①-②③|
⑧⑨④口 |④-⑤⑥|
⑤⑥③② |⑦-⑧⑨|
口①口⑦ |⑩⑪⑫⑬|
13
⑨⑩⑪⑫ |①②③④|
⑯⑮⑭⑬ |⑤⑥⑦⑧|
②④③① |⑨⑩⑪⑫|
⑤⑦⑧⑥ |⑬⑭⑮⑯|
14
⑪⑬⑫⑩ |①-②③|
⑧⑨⑦口 |④-⑤⑥|
⑤⑥③② |⑦-⑧⑨|
口①④口 |⑩⑪⑫⑬|
15
⑪⑬⑫⑩ |①-②③|
⑧⑨⑦口 |④-⑤⑥|
⑤⑥③② |⑦-⑧⑨|
口①④口 |⑩⑪⑫⑬|
16
⑤⑦⑧⑥ |①-②-|
⑦⑤⑥⑧ |③-④-|
①③④② |⑤-⑥-|
③①②④ |⑦-⑧-|
17
⑯⑭⑬⑮ |①②③④|
⑫⑩⑨⑪ |⑤⑥⑦⑧|
④⑧⑦③ |⑨⑩⑪⑫|
②⑥⑤① |⑬⑭⑮⑯|
18
口⑤③口 |①---|
④②④② |--②-|
①⑤③① |③---|
口口口口 |④-⑤-|
19
口口口口 |----|
口②口口 |①---|
口口口口 |②---|
③①口口 |③---|
20
①④②① |①---|
⑤③⑤③ |--②-|
口④②口 |③---|
口口口口 |④-⑤-|
21
③口②口 |----|
口①口口 |①---|
③口②口 |②---|
口①口口 |③---|
22
口①口① |①---|
口⑤口口 |②-③-|
④②④② |----|
③⑤③口 |④-⑤-|
23
口口④口 |----|
口口②口 |①---|
口口④口 |②---|
口③①口 |③-④-|
24
口③⑤口 |①---|
口①口① |②-③-|
口③⑤口 |----|
②④②④ |④-⑤-|
25
口③口③ |----|
口②口② |①---|
口①口① |②---|
口口口口 |③---|
26
①⑤③口 |①---|
④②④② |--②-|
口⑤③口 |③---|
口口口① |④-⑤-|
27
口口口口 |----|
口②口口 |①---|
口口口口 |②---|
③①口口 |③---|
28
①④②口 |①---|
⑤③⑤③ |--②-|
口④②口 |③---|
口口口① |④-⑤-|
29
③口②口 |----|
口①口口 |①---|
③口②口 |②---|
口①口口 |③---|
30
口①口① |①---|
口⑤口口 |②---|
④②④② |③---|
③⑤③口 |④-⑤-|
31
口口⑤口 |--①-|
口口③口 |②---|
口①⑤① |③---|
②④②口 |④-⑤-|
32
口③口口 |①---|
口①口① |②-③-|
口③口口 |----|
②④②④ |④---|
33
口④①④ |①---|
⑤③⑤③ |②---|
口②①② |③---|
口口口口 |④-⑤-|
34
①口口口 |①---|
口口口口 |----|
口口口口 |----|
口口口① |----|
35
口口口口 |----|
口口口口 |----|
口口口口 |----|
口口口口 |----|
36
口②口口 |①---|
①口①口 |②-③-|
口②①口
③口③口

口口④④
口口口口
口口④口 |--④-|
口⑤口口 |⑤---|
37
①②④④ |①---|
①口①口 |②-③-|
口②④⑤ |--④-|
③口③口 |⑤---|
38
口口②口 |①---|
口③口③ |②-③-|
口①②口
口①口①

④口口④
口口口口
④口口口 |--④-|
⑥口⑥⑤ |⑤-⑥-|
39
口①口口 |①-②-|
②④②④ |③-④-|
口①口口
口③口口

口⑥⑥口
口口口口
⑤⑤口⑤ |--⑤-|
口口口⑤ |⑥---|
40
口③口口 |①---|
②口②口 |②-③-|
口③①口
①口①口

口口口④
口④口④
口口⑤口 |--④-|
口口口口 |⑤---|
41
②口②口 |①---|
③口③口 |②-③-|
口①口口
口①口①

口⑥⑥口
口口口口
⑤⑥⑥口 |--④-|
④口口④ |⑤-⑥-|
42
①口口口 |①-②③|
①口②③ |④-⑤⑥|
口口口口
④口⑤⑥

口口口口
⑩口⑪⑫
⑧⑨口⑦ |⑦-⑧⑨|
口口口口 |⑩-⑪⑫|
43
①口口① |①---|
口④口⑤ |②--③|
⑦③口⑧ |④-⑤-|
口口②⑥ |⑥-⑦⑧|
44
口②口口 |①---|
①口①口 |②-③-|
口②①口
③口③口

口口④④
口口口口
口口④口 |--④-|
口⑤口口 |⑤---|
45
①②④④ |①---|
①口①口 |②-③-|
口②④⑤ |--④-|
③口③口 |⑤---|
46
口口②口 |①---|
口③口③ |②-③-|
口①②口
口①口①

④口口④
口口口口
④口口口 |--④-|
⑥口⑥⑤ |⑤-⑥-|
47
口①口口 |①-②-|
②④②④ |③-④-|
口①口口
口③口口

口⑥⑥口
口口口口
⑤⑤口⑤ |--⑤-|
口口口⑤ |⑥---|
48
口③口口 |①---|
②口②口 |②-③-|
口③①口
①口①口

口口口④
口④口④
口口⑤口 |--④-|
口口⑥口 |⑤-⑥-|
49
②口②口 |①---|
③口③口 |②-③-|
口①口口
口①口①

口⑥⑥口
口口口口
⑤⑥⑥口 |--④-|
④口口④ |⑤-⑥-|
50
①口口口 |①-②③|
①口②③ |④-⑤⑥|
口口口口
④口⑤⑥

口口口口
⑩口⑪⑫
⑧⑨口⑦ |⑦-⑧⑨|
口口口口 |⑩-⑪⑫|
51
①③③① |①---|
④口口④ |②-③-|
②口口② |--④-|
⑤口口⑤ |--⑤-|
52
⑪⑬⑫⑩ |①-②③|
⑧⑨⑦口 |④-⑤⑥|
⑤⑥③② |⑦-⑧⑨|
口①④口 |⑩⑪⑫⑬|
53
⑪⑬⑫⑩ |①-②③|
⑧⑨⑦口 |④-⑤⑥|
⑤⑥③② |⑦-⑧⑨|
口①④口 |⑩⑪⑫⑬|
54
⑪⑬⑫⑩ |①-②③|
⑧⑨④口 |④-⑤⑥|
⑤⑥③② |⑦-⑧⑨|
口①口⑦ |⑩⑪⑫⑬|
55
⑨⑩⑪⑫ |①②③④|
⑯⑮⑭⑬ |⑤⑥⑦⑧|
②④③① |⑨⑩⑪⑫|
⑤⑦⑧⑥ |⑬⑭⑮⑯|
56
⑪⑬⑫⑩ |①-②③|
⑧⑨⑦口 |④-⑤⑥|
⑤⑥③② |⑦-⑧⑨|
口①④口 |⑩⑪⑫⑬|
57
⑪⑬⑫⑩ |①-②③|
⑧⑨⑦口 |④-⑤⑥|
⑤⑥③② |⑦-⑧⑨|
口①④口 |⑩⑪⑫⑬|
58
⑤⑦⑧⑥ |①-②-|
⑦⑤⑥⑧ |③-④-|
①③④② |⑤-⑥-|
③①②④ |⑦-⑧-|
59
⑯⑭⑬⑮ |①②③④|
⑫⑩⑨⑪ |⑤⑥⑦⑧|
④⑧⑦③ |⑨⑩⑪⑫|
②⑥⑤① |⑬⑭⑮⑯|
60
口口口口 |①---|
口口口口 |----|
①口口① |----|
口口口口 |----|


不確定度: 0

最終更新:2013年03月17日 02:15