Rise From The Ashes
Another Infinity vs MK feat. Mayumi Morinaga

BASIC

Level: 2
BPM: 140
Notes: 149

1
口口口口 |----|
口口口口 |----|
口口口口 |----|
口口口口 |----|
2
口口口口 |----|
口口口口 |----|
口口口口 |----|
口口口口 |----|
3
口口口口 |----|
口口口口 |----|
口口口口 |----|
口口口口 |----|
4
口口口口 |①---|
①口口② |②---|
③口口④ |③---|
口口口口 |④---|
5
口口口口 |①---|
①口口② |②---|
③口口④ |③---|
口口口口 |④---|
6
口口口口 |①---|
口①②口 |②---|
口③④口 |③---|
口口口口 |④---|
7
口口口口 |①---|
口①②口 |②---|
口③④口 |③---|
口口口口 |④---|
8
口口口口 |①---|
①口口② |②---|
③口口④ |③---|
口口口口 |④---|
9
口口口口 |①---|
①口口② |②---|
③口口④ |③---|
口口口口 |④---|
10
口口口口 |①---|
口①②口 |②---|
口③④口 |③---|
口口口口 |④---|
11
口口口口 |①---|
口①②口 |②---|
口③④口 |③---|
口口口口 |④---|
12
①口口① |①---|
口口口口 |----|
口口口口 |----|
口口口口 |----|
13
口口口口 |----|
口口口口 |----|
口口口口 |----|
口口口口 |----|
14
口口口口 |①---|
口①①口 |----|
口口口口 |----|
口口口口 |----|
15
口口口口 |----|
口口口口 |----|
口口口口 |----|
口口口口 |----|
16
口口口口 |①---|
口口口口 |----|
口①①口 |----|
口口口口 |----|
17
口口口口 |----|
口口口口 |----|
口口口口 |----|
口口口口 |----|
18
口口口口 |①---|
口口口口 |----|
口口口口 |----|
口①①口 |----|
19
口口口口 |----|
口口口口 |----|
口口口口 |----|
口口口口 |----|
20
口口口口 |①---|
口口口口 |----|
①口口① |----|
口口口口 |----|
21
口口口口 |①---|
口①①口 |----|
口口口口 |----|
口口口口 |----|
22
口口口口 |①---|
①口口① |----|
口口口口 |----|
口口口口 |----|
23
口口口口 |①---|
口口口口 |----|
口①①口 |----|
口口口口 |----|
24
口口口口 |①---|
口口口口 |----|
①口口① |----|
口口口口 |----|
25
口口口口 |①---|
口①①口 |----|
口口口口 |----|
口口口口 |----|
26
口口口口 |①---|
①口口① |----|
口口口口 |----|
口口口口 |----|
27
口口口口 |①---|
口口口口 |----|
口①①口 |----|
口口口口 |----|
28
口口口口 |①---|
口口口口 |----|
口口口口 |----|
口①①口 |----|
29
口口口口 |①---|
口①①口 |----|
口口口口 |----|
口口口口 |----|
30
口口口口 |①---|
①口口① |----|
口口口口 |----|
口口口口 |----|
31
口口口口 |①---|
口口口口 |----|
口①①口 |----|
口口口口 |----|
32
口口口口 |①---|
口口口口 |----|
①口口① |----|
口口口口 |----|
33
口口口口 |①---|
口口口口 |----|
口口口口 |----|
口①①口 |----|
34
口口口口 |①---|
口口口口 |----|
①口口① |----|
口口口口 |----|
35
口口口口 |①---|
口口口口 |----|
口①①口 |----|
口口口口 |----|
36
口口口口 |①---|
①①①① |----|
口口口口 |----|
口口口口 |----|
37
口口口口 |①---|
口口口口 |----|
①口口① |----|
口口口口 |----|
38
口口口口 |①---|
口口口口 |----|
口口口口 |----|
①口口① |----|
39
口口口口 |①---|
口口口口 |----|
①口口① |----|
口口口口 |----|
40
口口口口 |①---|
①口口① |----|
口口口口 |----|
口口口口 |----|
41
①口口① |①---|
口口口口 |----|
口口口口 |----|
口口口口 |----|
42
口口口口 |①---|
口①①口 |----|
口口口口 |----|
口口口口 |----|
43
口口口口 |①---|
口口口口 |----|
①口口① |----|
口口口口 |----|
44
①口口口 |①---|
口②口④ |②---|
口口③口 |③---|
口口口口 |④---|
45
口②①口 |①---|
③口口口 |②---|
口④口口 |③---|
口口口口 |④---|
46
口口口口 |①---|
②①①口 |----|
口口口口 |----|
口口口口 |②---|
47
口①②口 |①---|
口口口③ |②---|
口口④口 |③---|
口口口口 |④---|
48
口口口口 |①---|
口①①口 |----|
口口口口 |----|
口②口口 |②---|
49
口口口口 |①---|
口④口口 |②---|
口③②口 |③---|
口口①口 |④---|
50
口口②口 |①---|
①口口① |----|
口口口口 |----|
口口口口 |②---|
51
口口口口 |①---|
口①口口 |②---|
口口②口 |③---|
口③④口 |④---|
52
口口口口 |①---|
口口口② |----|
①口口① |----|
口口口口 |②---|
53
口②①口 |①---|
③口口口 |②---|
口④口口 |③---|
口口口口 |④---|
54
口口口口 |①---|
②①①口 |----|
口口口口 |----|
口口口口 |②---|
55
口①②口 |①---|
口口口③ |②---|
口口④口 |③---|
口口口口 |④---|
56
口口口口 |①---|
口①①口 |----|
口口口口 |----|
口②口口 |②---|
57
口口口口 |①---|
口④口口 |②---|
口③②口 |③---|
口口①口 |④---|
58
口口②口 |①---|
①口口① |----|
口口口口 |----|
口口口口 |②---|
59
口口口口 |①---|
口①口口 |②---|
口口②口 |③---|
口③④口 |④---|
60
口口口口 |①---|
①口口① |----|
口口口口 |----|
口口口口 |----|


不確定度: 0

最終更新:2013年03月17日 02:15