Rise From The Ashes
Another Infinity vs MK feat. Mayumi Morinaga

ADVANCED

Level: 5
BPM: 140
Notes: 316

1
口口口口 |----|
口口口口 |----|
口口口口 |----|
口口口口 |----|
2
口口口口 |----|
口口口口 |----|
口口口口 |----|
口口口口 |----|
3
口口口口 |----|
口口口口 |----|
口口口口 |----|
口口口口 |----|
4
口口④口 |--①-|
①③口② |-②--|
口⑤口口 |③--④|
口口口口 |--⑤-|
5
口③口⑤ |--①-|
①口④② |-②--|
口口口口 |③--④|
口口口口 |--⑤-|
6
口口④口 |--①-|
①③口② |-②--|
口⑤口口 |③--④|
口口口口 |--⑤-|
7
口③口⑤ |--①-|
①口④② |-②--|
口口口口 |③--④|
口口口口 |--⑤-|
8
口口④口 |--①-|
①③口② |-②--|
口⑤口口 |③--④|
口口口口 |--⑤-|
9
口③口⑤ |--①-|
①口④② |-②--|
口口口口 |③--④|
口口口口 |--⑤-|
10
口口④口 |--①-|
①③口② |-②--|
口⑤口口 |③--④|
口口口口 |--⑤-|
11
口③口⑤ |--①-|
①口④② |-②--|
口口口口 |③--④|
口口口口 |--⑤-|
12
口口口口 |①-②-|
②口口③ |-③--|
①①①①
口口口口

口口⑤口
口④口口
口⑥口口 |④--⑤|
口口口口 |--⑥-|
13
口③口⑤ |--①-|
①口④② |-②--|
口口口口 |③--④|
口口口口 |--⑤-|
14
口口④口 |--①-|
①③口② |-②--|
口⑤口口 |③--④|
口口口口 |--⑤-|
15
口③口⑤ |--①-|
①口④② |-②--|
口口口口 |③--④|
口口口口 |--⑤-|
16
口口④口 |--①-|
①③口② |-②--|
口⑤口口 |③--④|
口口口口 |--⑤-|
17
口③口⑤ |--①-|
①口④② |-②--|
口口口口 |③--④|
口口口口 |--⑤-|
18
口口④口 |--①-|
①③口② |-②--|
口⑤口口 |③--④|
口口口口 |--⑤-|
19
口口口口 |----|
口口口口 |----|
口口口口 |----|
口口口口 |----|
20
口口口① |①---|
①口口口 |----|
口口口①
①口口口

口④口口
口口口口
②口口③ |--②-|
口口口口 |③-④-|
21
口口口口 |--①-|
②口口① |--②-|
口口③口 |--③-|
④口口④ |--④-|
22
口③口口 |----|
口口口口 |----|
①口口② |--①-|
口口口口 |②-③-|
23
口口口口 |--①-|
②口口① |--②-|
口口③口 |--③-|
④口口④ |--④-|
24
口③口口 |----|
口口口口 |----|
①口口② |--①-|
口口口口 |②-③-|
25
口口口口 |--①-|
口③口① |②-③-|
⑤口②⑤ |--④-|
口口④口 |--⑤-|
26
口口③口 |----|
口口口口 |----|
口①口② |--①-|
口口口口 |②-③-|
27
口③口口 |--①-|
口口口口 |②-③-|
②口①口
口口口口

口口口④
口口口口
⑤口口⑤ |--④-|
口口口口 |--⑤-|
28
口②口口 |----|
口口口口 |----|
口口口① |----|
口口口口 |①-②-|
29
口口③口 |--①-|
②口口① |--②-|
④口口④ |--③-|
口口口口 |--④-|
30
口口口口 |----|
口③口口 |----|
口口口口 |--①-|
①口②口 |②-③-|
31
②口③④ |--①-|
口口口① |--②-|
口⑤口口 |--③-|
口口口口 |④-⑤-|
32
口④口口 |①---|
①口③① |----|
口②口口 |--②-|
口口口口 |③-④-|
33
口口口① |--①-|
②口③口 |--②-|
口口口口 |--③-|
④口口④ |--④-|
34
②口口② |----|
口口口口 |----|
口①①口 |--①-|
口口口口 |--②-|
35
口①①口 |--①-|
③②②③ |②-③-|
⑥⑤⑤⑥ |--④-|
口④④口 |⑤-⑥-|
36
①口口① |①---|
口①①口 |----|
口口口口 |----|
口口口口 |----|
37
口口口口 |①---|
①口口口 |----|
口口口① |----|
口口口口 |----|
38
口口口口 |①---|
口口口① |----|
①口口口 |----|
口口口口 |----|
39
口口口口 |①---|
①口口口 |----|
口口口① |----|
口口口口 |----|
40
口口口口 |①---|
口①①口 |----|
①口口① |----|
口口口口 |----|
41
口①口① |----|
①口①口 |----|
口口口口 |--①-|
口口口口 |----|
42
①口①口 |--①-|
口①口① |----|
口口口口 |----|
口口口口 |----|
43
口口口口 |----|
口口口口 |----|
口口口口 |----|
口口口口 |----|
44
口口口口 |①---|
口①①口 |----|
口①①口
口口口口

④口口④
口口口口
②口③② |--②-|
口口口口 |③-④-|
45
④①①④ |--①-|
③②②③ |②-③-|
⑤⑤⑤⑤ |--④-|
口口口口 |--⑤-|
46
③口口③ |----|
口口口口 |----|
①口②① |--①-|
口口口口 |②-③-|
47
④①①④ |--①-|
③②②③ |②-③-|
⑤⑤⑤⑤ |--④-|
口口口口 |--⑤-|
48
③口口③ |----|
口口口口 |----|
①口口① |--①-|
口口②口 |②-③-|
49
口①①口 |--①-|
口②②口 |②-③-|
③口口③
口口口口

⑤⑤⑤⑤
④口口④
口口口口 |--④-|
口口口口 |--⑤-|
50
口口口③ |----|
①②口口 |----|
口口口口 |--①-|
口口口口 |②-③-|
51
③口④④ |--①-|
口口②① |②-③-|
口口口口 |--④-|
⑤⑤口口 |--⑤-|
52
②口口② |----|
口口口口 |----|
口①①口 |----|
口口口口 |①-②-|
53
口①①口 |--①-|
口②②口 |②-③-|
③口口③
口口口口

⑤⑤⑤⑤
④口口④
口口口口 |--④-|
口口口口 |--⑤-|
54
③口口③ |----|
口口口口 |----|
①②②① |--①-|
口口口口 |②-③-|
55
口①①口 |--①-|
口②②口 |②-③-|
③口口③
口口口口

口⑥⑥口
⑤口口⑤
口④④口 |--④-|
口口口口 |⑤-⑥-|
56
①口口① |①---|
口口口口 |----|
口口口口
口口口口

④口口④
口口口口
②口口② |--②-|
口口③口 |③-④-|
57
④①①④ |--①-|
③②②③ |②-③-|
⑤⑤⑤⑤ |--④-|
口口口口 |--⑤-|
58
口②②口 |----|
口口口口 |----|
口①①口 |--①-|
口口口口 |--②-|
59
①口口② |--①-|
②③③① |②-③-|
口口口口
口口口口

⑥口口⑥
⑥口口⑥
口⑤④口 |--④-|
口④⑤口 |⑤-⑥-|


不確定度: 0

最終更新:2013年03月17日 02:15