Rise From The Ashes
Another Infinity vs MK feat. Mayumi Morinaga

EXTREME

Level: 7
BPM: 140
Notes: 513

1
口口口口 |----|
口口口口 |----|
口口口口 |----|
口口口口 |----|
2
口口口口 |----|
口口口口 |----|
口口口口 |----|
口口口口 |----|
3
口口口口 |----|
口口口口 |----|
口口口口 |----|
口口口口 |----|
4
③口④④ |①-②-|
⑤口③② |-③--|
⑤②口⑥ |④--⑤|
①口口⑥ |--⑥-|
5
口口口口 |①-②-|
③口口② |-③--|
口②③口
①口口口

口⑥④④
口⑥口口
口口口口 |④--⑤|
⑤口口⑤ |--⑥-|
6
③口④④ |①-②-|
⑤口③② |-③--|
⑤②口⑥ |④--⑤|
口口①⑥ |--⑥-|
7
口⑥④④ |①-②-|
③⑥口② |-③--|
口②③口 |④--⑤|
⑤口①⑤ |--⑥-|
8
③口④④ |①-②-|
⑤口③② |-③--|
⑤②口⑥ |④--⑤|
口①口⑥ |--⑥-|
9
口⑥④④ |①-②-|
③⑥口② |-③--|
口②③口 |④--⑤|
⑤①口⑤ |--⑥-|
10
③口④④ |①-②-|
⑤口③② |-③--|
⑤②口⑥ |④--⑤|
口口①⑥ |--⑥-|
11
⑥⑥④④ |①-②-|
③口口② |-③--|
口②③口 |④--⑤|
⑤口①⑤ |--⑥-|
12
口口③口 |①-②-|
②①①口 |-③--|
口①①口
口口口口

口④口⑤
口口口口
口⑥口口 |④--⑤|
口口口口 |--⑥-|
13
⑤③②④ |--①-|
①口口口 |-②--|
口口口口 |③--④|
口口口口 |--⑤-|
14
口④③⑤ |①-②-|
②口口口 |-③--|
口⑥①① |④--⑤|
口口口口 |--⑥-|
15
⑤③②④ |--①-|
①口口口 |-②--|
口口口口 |③--④|
口口口口 |--⑤-|
16
口④③⑤ |①-②-|
②口口口 |-③--|
口⑥口口 |④--⑤|
口口①① |--⑥-|
17
⑤③②④ |--①-|
①口口口 |-②--|
口口口口 |③--④|
口口口口 |--⑤-|
18
口④③⑤ |①-②-|
②口①① |-③--|
口⑥口口 |④--⑤|
口口口口 |--⑥-|
19
口口口口 |----|
口口口口 |----|
口口口口 |----|
口口口口 |----|
20
①口口口 |①---|
口①口口 |----|
口口①口
口口口①

④口口④
口口口口
②口口② |--②-|
口口③口 |③-④-|
21
口口口口 |--①-|
③③②② |--②-|
口口口口 |--③-|
①①④④ |--④-|
22
口口口口 |①---|
口口口口 |----|
①口口①
口口口口

④口口④
口口口口
②口③② |--②-|
口口口口 |③-④-|
23
口④②口 |--①-|
口④②口 |--②-|
③①⑤③ |③-④-|
口①⑤口 |--⑤-|
24
口口口口 |①---|
①口口① |----|
口口口口
口口口口

④口口口
口口口④
②口口口 |--②-|
口口③② |③-④-|
25
④④③③ |--①-|
口①口口 |②-③-|
口口②口 |--④-|
口⑤⑤口 |--⑤-|
26
口口④口 |①---|
口②口③ |----|
①口口① |--②-|
口口口口 |③-④-|
27
口④口口 |①-②-|
③口②口 |③-④-|
①口口①
口口口口

口口口⑥
口⑤口⑥
⑦⑤口口 |⑤-⑥-|
⑦口口口 |--⑦-|
28
③①①口 |①---|
③口口口 |----|
②口口② |----|
口口口口 |②-③-|
29
口④口① |--①-|
口④③① |--②-|
口口③② |--③-|
口口口② |--④-|
30
①口口① |①---|
口口口口 |----|
口口口口
口口口口

④口口④
②口口②
口口③口 |--②-|
口口口口 |③-④-|
31
口⑦③口 |①-②-|
口②⑥③ |--③-|
②⑤口口 |④-⑤-|
④①①④ |⑥-⑦-|
32
①口口① |①---|
口口口口 |----|
口口口口
口口口口

④④口口
口口③③
②②口口 |--②-|
口口口口 |③-④-|
33
口④④口 |--①-|
口口③口 |--②-|
口②口③ |--③-|
②口①① |--④-|
34
口③口口 |①---|
①②口① |----|
口口③口 |--②-|
口口②口 |--③-|
35
②口口① |--①-|
口口③口 |②-③-|
口口口口
口口口口

⑥口口口
口⑥口⑤
口口④口 |--④-|
口口口口 |⑤-⑥-|
36
口口①① |①-②-|
口口③口 |-③-④|
口口口口
①①④②

口口⑥口
口口口口
口口⑦⑤ |--⑤-|
口口口口 |-⑥-⑦|
37
口⑤口口 |--①-|
口②口口 |-②-③|
④⑥口口 |--④-|
①③口口 |-⑤-⑥|
38
口口⑤口 |--①-|
口口②口 |-②-③|
口口⑥④ |--④-|
口口③① |-⑤-⑥|
39
口⑤口口 |--①-|
口②口口 |-②-③|
④⑥口口 |--④-|
①③口口 |-⑤-⑥|
40
①口⑥口 |①-②-|
①口③口 |-③-④|
口口⑦⑤ |--⑤-|
口口④② |-⑥-⑦|
41
口⑤口口 |--①-|
口②口口 |-②-③|
④⑥口口 |--④-|
①③口口 |-⑤-⑥|
42
①⑨⑩② |①②③④|
③⑪⑫④ |⑤⑥⑦⑧|
⑤⑬⑭⑥ |⑨⑩⑪⑫|
⑦⑮⑯⑧ |⑬⑭⑮⑯|
43
①口口⑧ |①②③④|
②⑩⑪⑦ |⑤⑥⑦⑧|
③⑨⑫⑥ |⑨⑩⑪⑫|
④口口⑤ |----|
44
口①①口 |①-②-|
口口口口 |--③-|
①口口①
口②口③

⑥口口⑥
口口口口
④口⑤④ |--④-|
口口口口 |⑤-⑥-|
45
口①②口 |--①-|
③②①口 |②-③-|
口口口口
口口口③

④⑥⑥④
口口口⑤
口⑥⑥口 |④-⑤-|
⑤口口口 |--⑥-|
46
口口口口 |①-②-|
口口口口 |--③-|
①口口①
口③口②

⑥口口⑥
口口口口
④口⑤④ |--④-|
口口口口 |⑤-⑥-|
47
口①②口 |--①-|
③②①口 |②-③-|
口口口口
口口口③

口⑥⑥口
口口口⑤
④⑥⑥④ |④-⑤-|
⑤口口口 |--⑥-|
48
①口口① |①-②-|
口口口口 |--③-|
口口口口
口②口③

⑥口口⑥
口口口口
④口口④ |--④-|
口口⑤口 |⑤-⑥-|
49
口①②口 |--①-|
③②①口 |②-③-|
口口口口
口口口③

口⑤⑤口
口口口④
口⑤⑤口 |--④-|
④口口口 |--⑤-|
50
口④⑤口 |①-②-|
④口口⑤ |--③-|
①⑥⑥① |--④-|
口③口② |⑤-⑥-|
51
④④⑤⑤ |--①-|
④①②⑤ |②-③-|
①口口② |--④-|
口③③口 |--⑤-|
52
⑤口口⑤ |①-②-|
口口口口 |--③-|
①④④① |----|
口②口③ |④-⑤-|
53
口①②口 |--①-|
③②①口 |②-③-|
口口口口
口口口③

口⑤⑤口
口口口④
口⑤⑤口 |--④-|
④口口口 |--⑤-|
54
口口口口 |①-②-|
口口口口 |--③-|
①口口①
口③口②

⑥口口⑥
口口口口
④⑤⑤④ |--④-|
口口口口 |⑤-⑥-|
55
口①②口 |--①-|
口②①口 |②-③-|
口口口口
口③③口

口⑥⑥口
口口口⑤
④⑥⑥④ |--④-|
⑤口口口 |⑤-⑥-|
56
①口口① |①-②-|
口口口口 |--③-|
口口口口
口②口③

⑥口口⑥
口口口口
④口口④ |--④-|
口口⑤口 |⑤-⑥-|
57
口①②口 |--①-|
③②①口 |②-③-|
口口口口
口口口③

口⑤⑤口
口口口④
口⑤⑤口 |--④-|
④口口口 |--⑤-|
58
口④⑤口 |①-②-|
④口口⑤ |--③-|
①⑥⑥① |--④-|
口③口② |⑤-⑥-|
59
口口口口 |--①-|
口①②口 |②-③-|
①口口②
口③③口

④④⑤⑤
口⑥⑥口
口口口口 |--④-|
口口口口 |⑤-⑥-|
60
口口口口 |①---|
①口口① |----|
口①①口 |----|
①口口① |----|


不確定度: 0

最終更新:2013年03月17日 02:14