COME BACK TO MY HEART (Ryu☆Remix)
Another Infinity feat. Mayumi Morinaga

BASIC

Level: 4
BPM: 180
Notes: 259

1
口口口口 |----|
口口口口 |----|
口口口口 |----|
口口口口 |----|
2
口口口口 |----|
口口口口 |----|
口口口口 |----|
口口口口 |----|
3
①口②口 |①---|
③口④口 |②---|
口口口口 |③---|
口口口口 |④---|
4
口口口口 |①---|
口②口① |②---|
口④口③ |③---|
口口口口 |④---|
5
口口口口 |①---|
口口口口 |②---|
①口②口 |③---|
③口④口 |④---|
6
口口口口 |①---|
口口口口 |②---|
口④口③ |③---|
口②口① |④---|
7
①口②口 |①---|
③口④口 |②---|
口口口口 |③---|
口口口口 |④---|
8
口口口口 |①---|
口②口① |②---|
口④口③ |③---|
口口口口 |④---|
9
口口口口 |①---|
口口口口 |②---|
①口②口 |③---|
③口④口 |④---|
10
口口口口 |①---|
口口口口 |②---|
口④口③ |③---|
口②口① |④---|
11
②口口口 |①---|
口口口口 |----|
①口口口 |②---|
口口口口 |----|
12
口口口② |①---|
口口口口 |----|
口口口① |②---|
口口口口 |----|
13
口口口口 |①---|
①口③口 |②---|
口②口④ |③---|
口口口口 |④---|
14
口口口口 |①---|
口③口① |②---|
④口②口 |③---|
口口口口 |④---|
15
口口口② |①---|
口口口口 |----|
口口口① |②---|
口口口口 |----|
16
②口口口 |①---|
口口口口 |----|
①口口口 |②---|
口口口口 |----|
17
口口口口 |①---|
口③口① |②---|
④口②口 |③---|
口口口口 |④---|
18
口①①口 |①---|
口②②口 |----|
口口口口 |②---|
口口口口 |----|
19
口口口口 |①---|
口口口口 |②---|
口口①口 |③---|
口③②口 |----|
20
口口④口 |①---|
口②③口 |②---|
口①口口 |③---|
口口口口 |④---|
21
口①口口 |①---|
口口口② |----|
口口③口 |②---|
口口口口 |③---|
22
口口口口 |①---|
②口口口 |----|
口③口口 |②---|
口①口口 |③---|
23
口口口口 |①---|
口口③口 |②---|
口口②口 |③---|
口口①口 |----|
24
口③④口 |①---|
口②口口 |②---|
口①口口 |③---|
口口口口 |④---|
25
①口口口 |①---|
②口口口 |----|
口③口口 |②---|
口口口口 |③---|
26
口口口口 |①---|
口口口② |----|
口口③口 |②---|
口口①口 |③---|
27
口口口口 |①---|
口口口口 |----|
口口口口 |----|
口①口口 |----|
28
口口口口 |----|
口口口口 |----|
口口口口 |----|
口口口口 |----|
29
②②口口 |①---|
口口口口 |----|
①①口口 |②---|
口口口口 |----|
30
口口口口 |①---|
口口②口 |②---|
口①③口 |③---|
口口口口 |----|
31
口口口口 |①---|
口口口口 |----|
②口口① |②---|
②口口① |----|
32
口③③口 |①---|
口②②口 |②---|
口①①口 |③---|
口口口口 |----|
33
口口②② |①---|
口口口口 |----|
口口①① |②---|
口口口口 |----|
34
口口口口 |①---|
口②口口 |②---|
口③①口 |③---|
口口口口 |----|
35
口口口口 |①---|
口口口口 |----|
①口口② |②---|
①口口② |----|
36
口口口口 |①---|
口①①口 |②---|
口②②口 |③---|
口③③口 |----|
37
口口口口 |①---|
口口口口 |----|
②口口① |②---|
②口口① |----|
38
口①①口 |①---|
②口口② |②---|
口③③口 |③---|
口口口口 |----|
39
口口口口 |①---|
口口口口 |----|
口口口口 |②---|
口①②口 |----|
40
口口口口 |①---|
口口口口 |----|
口①②口 |②---|
口口口口 |----|
41
口口口口 |①---|
口①②口 |----|
口口口口 |②---|
口口口口 |----|
42
口①②口 |①---|
口口口口 |----|
口口口口 |②---|
口口口口 |----|
43
口口口口 |①---|
口口口口 |----|
口口口口 |②---|
①口口② |----|
44
口口口口 |①---|
口口口口 |----|
①口口② |②---|
口口口口 |----|
45
口口口口 |①---|
①口口② |----|
口口口口 |②---|
口口口口 |----|
46
①口口② |①---|
口口口口 |----|
口口口口 |②---|
口口口口 |----|
47
②口口口 |①---|
口①口口 |----|
口口①口 |②---|
口口口② |----|
48
口口口② |①---|
口口①口 |----|
口①口口 |②---|
②口口口 |----|
49
口口口口 |----|
口口口口 |----|
口口口口 |----|
口口口口 |----|
50
②②口口 |①---|
口口口口 |----|
①①口口 |②---|
口口口口 |----|
51
口口口口 |①---|
口口②口 |②---|
口①③口 |③---|
口口口口 |----|
52
口口口口 |①---|
口口口口 |----|
②口口① |②---|
②口口① |----|
53
口③③口 |①---|
口②②口 |②---|
口①①口 |③---|
口口口口 |----|
54
口口②② |①---|
口口口口 |----|
口口①① |②---|
口口口口 |----|
55
口口口口 |①---|
口②口口 |②---|
口③①口 |③---|
口口口口 |----|
56
口口口口 |①---|
口口口口 |----|
①口口② |②---|
①口口② |----|
57
口口口口 |①---|
口①①口 |②---|
口②②口 |③---|
口③③口 |----|
58
口口口口 |①---|
①口口② |----|
①口口② |②---|
口口口口 |----|
59
口口口口 |①---|
口②口口 |②---|
①口③口 |③---|
口口口口 |----|
60
口②②口 |①---|
口口口口 |----|
口口口口 |②---|
口①①口 |----|
61
口口口口 |①---|
口③口① |②---|
口口②口 |③---|
口口口口 |----|
62
口口口口 |①---|
②口口① |----|
②口口① |②---|
口口口口 |----|
63
口口口口 |①---|
口口②口 |②---|
口③口① |③---|
口口口口 |----|
64
口②②口 |①---|
口口口口 |----|
口口口口 |②---|
口①①口 |----|
65
口口口口 |①---|
①口③口 |②---|
口②口口 |③---|
口口口口 |----|
66
口口口口 |①---|
①口口② |----|
①口口② |②---|
口口口口 |----|
67
口口口口 |①---|
口①①口 |②---|
口②②口 |③---|
口③③口 |----|
68
①口②口 |①---|
③口④口 |②---|
口口口口 |③---|
口口口口 |④---|
69
口口口口 |①---|
口②口① |②---|
口④口③ |③---|
口口口口 |④---|
70
口口口口 |①---|
口口口口 |②---|
①口②口 |③---|
③口④口 |④---|
71
口口口口 |①---|
口口口口 |②---|
口④口③ |③---|
口②口① |④---|
72
①口②口 |①---|
③口④口 |②---|
口口口口 |③---|
口口口口 |④---|
73
口口口口 |①---|
口②口① |②---|
口④口③ |③---|
口口口口 |④---|
74
口口口口 |①---|
口口口口 |②---|
①口②口 |③---|
③口④口 |④---|
75
口口口口 |①---|
口口口口 |②---|
口④口③ |③---|
口②口① |④---|
76
口①①口 |①---|
①口口① |----|
口口口口 |----|
口口口口 |----|


不確定度: 0

最終更新:2013年03月17日 02:14