COME BACK TO MY HEART (Ryu☆Remix)
Another Infinity feat. Mayumi Morinaga

ADVANCED

Level: 7
BPM: 180
Notes: 512

1
口口口口 |----|
口口口口 |----|
口口口口 |----|
口口口口 |----|
2
口口口口 |----|
口口口口 |----|
口口口口 |----|
口口口口 |----|
3
①口口⑥ |①-②-|
口③⑧口 |③-④-|
口⑦④口 |⑤-⑥-|
⑤口口② |⑦-⑧-|
4
口⑤⑦口 |①-②-|
②口口④ |③-④-|
①⑧⑥③ |⑤-⑥-|
口口口口 |⑦-⑧-|
5
口口口口 |①-②-|
⑤⑥⑧⑦ |③-④-|
口口口口 |⑤-⑥-|
①②④③ |⑦-⑧-|
6
口⑥⑥口 |①-②-|
⑦口口⑦ |③-④-|
⑧④②⑧ |⑤-⑥-|
⑤①③口 |⑦-⑧-|
7
①口口⑥ |①-②-|
口③⑧口 |③-④-|
口⑦④口 |⑤-⑥-|
⑤口口② |⑦-⑧-|
8
口⑤⑦口 |①-②-|
②口口④ |③-④-|
①⑧⑥③ |⑤-⑥-|
口口口口 |⑦-⑧-|
9
口口口口 |①-②-|
⑤⑥⑧⑦ |③-④-|
口口口口 |⑤-⑥-|
①②④③ |⑦-⑧-|
10
⑦口口⑦ |①-②-|
⑥口口⑥ |③-④-|
口④②口 |⑤-⑥-|
⑤①③⑤ |⑦---|
11
口⑤⑥口 |--①-|
口口口口 |②-③-|
①口口④ |④-⑤⑥|
口②③口 |----|
12
④口口① |--①-|
口③②口 |②-③-|
口口口口 |④-⑤⑥|
口⑥⑤口 |----|
13
口⑤⑥口 |--①-|
①口口④ |②-③-|
⑦②③口 |④-⑤⑥|
口口口口 |--⑦-|
14
口④口口 |--①-|
口口⑤口 |②-③-|
口③口② |--④-|
口口①⑥ |⑤-⑥-|
15
口⑤⑥口 |--①-|
口口口口 |②-③-|
①口口④ |④-⑤⑥|
口②③口 |----|
16
③口口① |--①-|
口④②口 |②-③-|
口口口⑦ |④-⑤⑥|
口⑥⑤口 |--⑦-|
17
③④⑤① |--①-|
口口口口 |--②-|
口口口口 |--③-|
②⑤④③ |④-⑤-|
18
口口口口 |----|
①②②① |--①-|
①②②① |②---|
口口口口 |----|
19
口口①口 |①--②|
③口口② |--③-|
②口口③
口①口口

口⑤⑤口
口口④口
口④口口 |④---|
口口口口 |--⑤-|
20
口⑥⑦口 |①--②|
⑤口口口 |--③-|
①口④② |--④-|
①③口② |⑤-⑥⑦|
21
①口口④ |----|
口⑤⑥口 |--①-|
口③②口 |②-③-|
口口口口 |④-⑤⑥|
22
口口①口 |----|
②⑤口口 |--①-|
口口口④ |②-③-|
口③口口 |④-⑤-|
23
口口口口 |①--②|
⑤口③③ |--③-|
口①②口 |④---|
①④④② |--⑤-|
24
③④③④ |①--②|
口口口口 |--③-|
②口⑥① |--④-|
②⑤口① |⑤-⑥-|
25
②口口口 |①---|
③①口⑦ |--②-|
口④⑥口 |③-④-|
口⑤口口 |⑤-⑥⑦|
26
口①②口 |----|
口③口口 |--①②|
⑤口口④ |③-④-|
口⑥⑦口 |⑤-⑥⑦|
27
口口口口 |----|
口口口口 |----|
口口口口 |----|
口口口口 |----|
28
口口口口 |----|
口口口口 |----|
口口口口 |----|
①口口口 |--①-|
29
②口口③ |①--②|
口②③口 |--③-|
口口口口 |----|
④口①口 |--④-|
30
口②口口 |①--②|
③口③口 |--③-|
⑤口口口 |④---|
口④①④ |--⑤-|
31
⑦⑧⑧③ |①-②③|
⑥口口② |--④-|
口⑤①④ |⑤-⑥⑦|
口口口口 |--⑧-|
32
口口口口 |①--②|
口③③口 |--③-|
①口口② |④---|
⑤④④口 |--⑤-|
33
②口口③ |①--②|
口②③口 |--③-|
口口口① |----|
④口口口 |--④-|
34
口②口口 |①--②|
③口③口 |--③-|
⑤口口口 |④---|
口④①④ |--⑤-|
35
⑦⑧⑧③ |①-②③|
⑥口口② |--④-|
口⑤①④ |⑤-⑥⑦|
口口口口 |--⑧-|
36
口口口口 |①--②|
口口口口 |--③-|
①口口②
口③③口

口口口口
口口口口
⑤口口口 |④---|
④口口④ |--⑤-|
37
⑦⑧⑧③ |①-②③|
⑥口口② |--④-|
口⑤①④ |⑤-⑥⑦|
口口口口 |--⑧-|
38
口口口口 |①--②|
④④④④ |--③-|
①③③② |④---|
口口口口 |----|
39
口口口② |--①-|
口口③口 |②-③-|
口④口口 |--④-|
①口⑤口 |--⑤-|
40
口⑤口④ |--①-|
口口③口 |--②-|
②口口① |--③-|
口口口口 |④-⑤-|
41
口口口口 |①---|
①口口口 |--②-|
口②④口 |③---|
口口③口 |--④-|
42
口口③口 |①---|
口②口口 |--②-|
口口口口 |③---|
口①口口 |----|
43
②口口口 |--①-|
口③口口 |②-③-|
口口④口 |--④-|
口⑤口① |--⑤-|
44
口口口③ |--①-|
口④②口 |--②-|
①口口口 |③---|
口口口口 |--④-|
45
①口口口 |①---|
口口口③ |--②-|
口口②口 |③---|
口口口口 |----|
46
口口①口 |①---|
口口口口 |--②-|
口②口口 |③---|
③口口口 |----|
47
口口口③ |①---|
口口②口 |--②-|
口④口口 |③---|
口①⑤口 |--④⑤|
48
④④④④ |①--②|
③③③③ |--③-|
口口口① |④---|
②口口口 |----|
49
口口口口 |----|
口口口口 |----|
口口口口 |----|
①口口口 |--①-|
50
②口口③ |①--②|
口②③口 |--③-|
口口口口 |----|
④口①口 |--④-|
51
口②口口 |①--②|
③口③口 |--③-|
⑤口口口 |④---|
口④①④ |--⑤-|
52
⑦⑧⑧③ |①-②③|
⑥口口② |--④-|
口⑤①④ |⑤-⑥⑦|
口口口口 |--⑧-|
53
口口口口 |①--②|
口③③口 |--③-|
①口口② |④---|
⑤④④口 |--⑤-|
54
②口口③ |①--②|
口②③口 |--③-|
口口口① |----|
④口口口 |--④-|
55
口②口口 |①--②|
③口③口 |--③-|
⑤口口口 |④---|
口④①④ |--⑤-|
56
⑦⑧⑧③ |①-②③|
⑥口口② |--④-|
口⑤①④ |⑤-⑥⑦|
口口口口 |--⑧-|
57
口口口口 |①--②|
口③③口 |--③-|
①④④② |④---|
⑤口口口 |--⑤-|
58
②口口③ |①--②|
口③②口 |--③-|
④口口口 |----|
口口口① |--④-|
59
口口口② |①--②|
口口口口 |--③-|
⑤③③口 |④---|
④口①④ |--⑤-|
60
⑦⑧口③ |①-②③|
⑥口口② |--④-|
口口口④ |⑤-⑥⑦|
口⑤①口 |--⑧-|
61
口口③③ |①--②|
口②口口 |--③-|
⑤口①口 |④---|
④④口口 |--⑤-|
62
②口口③ |①--②|
口③②口 |--③-|
④口口口 |----|
口口口① |--④-|
63
口口口② |①--②|
口口口口 |--③-|
⑤③③口 |④---|
④口①④ |--⑤-|
64
⑦⑧口③ |①-②③|
⑥口口② |--④-|
口口口④ |⑤-⑥⑦|
口⑤①口 |--⑧-|
65
口口③③ |①--②|
口②口口 |--③-|
⑤口①口 |④---|
④④口口 |--⑤-|
66
⑦⑧⑧③ |①-②③|
⑥口口② |--④-|
口口口④ |⑤-⑥⑦|
口⑤①口 |--⑧-|
67
口口口口 |①--②|
口③③口 |--③-|
①口口② |④---|
口④④口 |----|
68
①口口⑥ |①-②-|
口③⑧口 |③-④-|
口⑦④口 |⑤-⑥-|
⑤口口② |⑦-⑧-|
69
口⑤⑦口 |①-②-|
②口口④ |③-④-|
①⑧⑥③ |⑤-⑥-|
口口口口 |⑦-⑧-|
70
口口口口 |①-②-|
⑤⑥⑧⑦ |③-④-|
口口口口 |⑤-⑥-|
①②④③ |⑦-⑧-|
71
口⑥⑥口 |①-②-|
⑦口口⑦ |③-④-|
⑧④②⑧ |⑤-⑥-|
⑤①③口 |⑦-⑧-|
72
①口口⑥ |①-②-|
口③⑧口 |③-④-|
口⑦④口 |⑤-⑥-|
⑤口口② |⑦-⑧-|
73
口⑤⑦口 |①-②-|
②口口④ |③-④-|
①⑧⑥③ |⑤-⑥-|
口口口口 |⑦-⑧-|
74
口口口口 |①-②-|
⑤⑥⑧⑦ |③-④-|
口口口口 |⑤-⑥-|
①②④③ |⑦-⑧-|
75
⑦口口⑦ |①-②-|
⑥口口⑥ |③-④-|
口④②口 |⑤-⑥-|
⑤①③⑤ |⑦---|
76
口口口口 |①---|
口①①口 |----|
①口口① |----|
口口口口 |----|


不確定度: 0

最終更新:2013年03月17日 02:14