COME BACK TO MY HEART (Ryu☆Remix)
Another Infinity feat. Mayumi Morinaga
EXTREME
Level: 9
BPM: 180
Notes: 704
1
口口口口 |----|
口口口口 |----|
口口口口 |----|
口口口口 |----|
2
口口口口 |----|
口口口口 |----|
口口口口 |----|
口口口口 |----|
3
①⑦口④ |①-②-|
口③⑥口 |③-④-|
⑤口②⑧ |⑤-⑥-|
口口口口 |⑦-⑧-|
4
⑤⑦⑤⑦ |①-②-|
①口口③ |③-④-|
⑥⑧⑥⑧ |⑤-⑥-|
①②④③ |⑦-⑧-|
5
⑧⑥④口 |①-②-|
①⑧⑥④ |③-④-|
口⑦⑤口 |⑤-⑥-|
②口③口 |⑦-⑧-|
6
口口口② |①-②-|
①口口口 |③-④-|
④口口口
口③口口
口⑥口口
⑧⑦⑥口
口⑧⑦⑥ |⑤-⑥-|
⑤口⑧⑦ |⑦-⑧-|
7
①⑦③④ |①-②-|
口口⑥② |③-④-|
⑤口口⑧ |⑤-⑥-|
口口口口 |⑦-⑧-|
8
⑤⑦⑤⑦ |①-②-|
①口口③ |③-④-|
⑥⑧⑥⑧ |⑤-⑥-|
①②④③ |⑦-⑧-|
9
⑧⑥④口 |①-②-|
①⑧⑥④ |③-④-|
口⑦⑤口 |⑤-⑥-|
②口③口 |⑦-⑧-|
10
⑦⑦⑦⑦ |①-②-|
①口⑥⑥ |③-④-|
口口⑤③ |⑤-⑥-|
口②口④ |⑦---|
11
口口口⑥ |--①-|
口④口⑤ |②-③-|
①口③口 |④-⑤⑥|
口②口口 |----|
12
⑥口①口 |--①-|
⑤口④口 |②-③-|
口③②③ |④-⑤⑥|
口口④口 |----|
13
口①②口 |--①-|
口③口口 |②-③-|
⑦口口④ |④-⑤⑥|
口口⑤⑥ |--⑦-|
14
④②②① |--①-|
口③③⑤ |②-③-|
⑤口④口 |--④-|
口口⑥⑥ |⑤-⑥-|
15
⑥口⑤口 |--①-|
⑤③⑥口 |②-③-|
口④口① |④-⑤⑥|
②口口口 |----|
16
口⑥⑤口 |--①-|
⑦⑤⑥⑦ |②-③-|
③④②① |④-⑤⑥|
口口口口 |--⑦-|
17
③④口① |--①-|
口⑤口口 |--②-|
②口⑤① |--③-|
口②④③ |④-⑤-|
18
口口②② |----|
①口①② |--①-|
②①口① |②---|
②②口口 |----|
19
口③口口 |①--②|
②①口③ |--③-|
④口⑤口 |④---|
⑤④②① |--⑤-|
20
口③口③ |①--②|
②①②口 |--③-|
口口口①
口口口口
口口口口
口口口⑦
口④⑤⑥ |--④-|
⑥⑦口④ |⑤-⑥⑦|
21
①口②口 |----|
口口③④ |--①-|
②③⑥口 |②-③-|
口④口⑤ |④-⑤⑥|
22
④①⑤③ |----|
口口③口 |--①-|
口②口① |②-③-|
②口口口 |④-⑤-|
23
口③口口 |①--②|
②①口③ |--③-|
④口⑤口 |④---|
⑤④②① |--⑤-|
24
口③口③ |①--②|
②①②口 |--③-|
口④⑤① |--④-|
⑥口⑥④ |⑤-⑥-|
25
②口②口 |①---|
口①口① |--②-|
口口口口
口口口口
口口口口
③口③⑦
④⑥④口 |③-④-|
⑤口⑤口 |⑤-⑥⑦|
26
⑦口⑤① |----|
口⑥②口 |--①②|
④口口③ |③-④-|
口口口口 |⑤-⑥⑦|
27
⑬④⑫⑤ |①②③④|
③⑭⑥⑪ |⑤⑥⑦⑧|
⑮②⑩⑦ |⑨⑩⑪⑫|
①⑯⑧⑨ |⑬⑭⑮⑯|
28
⑥①⑧③ |-①②-|
②⑩②⑤ |③-④⑤|
⑨①⑦③ |-⑥⑦⑧|
④⑪④⑤ |⑨⑩⑪-|
29
口②口口 |①--②|
②口①口 |--③-|
口口口③ |----|
④口③口 |--④-|
30
③⑥⑤口 |①-②③|
②口④口 |--④-|
⑦④①⑤ |⑤---|
口口⑤口 |⑥-⑦-|
31
⑦口口③ |①-②③|
⑥⑧⑧② |--④-|
口口口④ |⑤-⑥⑦|
口⑤口① |--⑧-|
32
⑥④④⑦ |①-②③|
⑦⑧口⑧ |--④-|
③②②③ |⑤---|
①⑤⑤① |⑥-⑦⑧|
33
口③③口 |①--②|
口口①口 |--③-|
②②口① |----|
⑤口口④ |--④⑤|
34
口口②口 |①--②|
②③口口 |--③-|
口①①③
口口口口
口④口口
口口⑤口
口⑥口口 |④---|
口④④口 |⑤-⑥-|
35
⑥⑦②③ |①-②③|
口口口口 |--④-|
口口④⑧ |⑤-⑥⑦|
⑤口口① |--⑧-|
36
口口③口 |①-②③|
①⑤⑤口 |--④-|
⑥④④口 |⑤---|
口②口口 |--⑥-|
37
⑦口口③ |①-②③|
⑥⑧⑧② |--④-|
口口口④ |⑤-⑥⑦|
口⑤口① |--⑧-|
38
口④④口 |①-②③|
口口口口 |--④-|
③②②③ |⑤---|
①⑤⑤① |----|
39
口④口② |--①-|
口口③口 |②-③-|
口①口⑤ |--④-|
口口口口 |--⑤-|
40
口口④⑤ |--①-|
①③口④ |--②-|
口口③口 |--③-|
口②口口 |④-⑤-|
41
④口口口 |①---|
口口口口 |--②-|
口口口① |③---|
③口②口 |--④-|
42
口③②口 |①---|
③①①② |--②-|
口③②口 |③---|
口口口口 |----|
43
口⑤②口 |--①-|
⑤③③② |②-③-|
①④④口 |--④-|
口①口口 |--⑤-|
44
口口口口 |--①-|
口口口① |--②-|
口口口③ |③---|
④口③② |--④-|
45
③口口③ |①---|
口③③口 |--②-|
①②②口 |③---|
口①口口 |----|
46
口①①口 |①---|
口口口② |--②-|
口口③口 |③---|
口口口口 |----|
47
口口③② |①---|
①①②③ |--②-|
④①口口 |③---|
①①①⑤ |--④⑤|
48
④④④④ |①--②|
③③③③ |--③-|
口口口② |④---|
口①口口 |----|
49
口口口口 |----|
口口口口 |----|
口口口口 |----|
口①口口 |--①-|
50
口②③口 |①--②|
②口口③ |--③-|
口口①口 |----|
④口口口 |--④-|
51
③⑥⑤口 |①-②③|
②口④口 |--④-|
⑦④①⑤ |⑤---|
口口⑤口 |⑥-⑦-|
52
⑦口口③ |①-②③|
⑥⑧⑧② |--④-|
口口口④ |⑤-⑥⑦|
口⑤口① |--⑧-|
53
⑥④④⑦ |①-②③|
⑦⑧口⑧ |--④-|
③②②③ |⑤---|
①⑤⑤① |⑥-⑦⑧|
54
口③③口 |①--②|
口口①口 |--③-|
②②口① |----|
⑤口口④ |--④⑤|
55
口口②口 |①--②|
②③口口 |--③-|
口①①③
口口口口
口④口口
口口⑤口
口⑥口口 |④---|
口④④口 |⑤-⑥-|
56
⑥⑦②③ |①-②③|
口口口口 |--④-|
口口④⑧ |⑤-⑥⑦|
⑤口口① |--⑧-|
57
口口③口 |①-②③|
①⑤⑤口 |--④-|
口④④口 |⑤---|
⑥②⑥口 |--⑥-|
58
③口口② |①--②|
③口口② |--③-|
③④口② |----|
口①口① |--④-|
59
③④④② |①-②③|
口③②口 |--④-|
口口口口
口口口①
口口口口
口口口⑥
口口口口 |⑤---|
⑤口⑤⑦ |⑥-⑦-|
60
③⑧⑧⑦ |①-②③|
口②⑥口 |--④-|
口口口口 |⑤-⑥⑦|
④①⑤口 |--⑧-|
61
④口口口 |①-②③|
④口⑥② |--④-|
①⑤⑤口 |⑤---|
⑦口⑦③ |⑥-⑦-|
62
③口口② |①--②|
③口口② |--③-|
③④口② |----|
口①口① |--④-|
63
②③③口 |①--②|
口②口口 |--③-|
口口口口
口口口①
口口口口
口口口⑤
口口口口 |④---|
④口④⑥ |⑤-⑥-|
64
③口口⑦ |①-②③|
口②⑥口 |--④-|
⑧口口口 |⑤-⑥⑦|
④①⑤口 |--⑧-|
65
口④④口 |①-②③|
③口口② |--④-|
口口口口
口口口①
口口口口
口口口口
口⑤⑤口 |⑤---|
口口口⑥ |--⑥-|
66
③⑧口⑦ |①-②③|
口②⑥口 |--④-|
口口口口 |⑤-⑥⑦|
④①⑤口 |--⑧-|
67
口口①口 |①-②③|
④⑤⑥① |④-⑤-|
⑤②③⑥ |⑥---|
口⑤⑥口 |----|
68
①⑦口④ |①-②-|
口③⑥口 |③-④-|
⑤口②⑧ |⑤-⑥-|
口口口口 |⑦-⑧-|
69
⑤⑦⑤⑦ |①-②-|
①口口③ |③-④-|
⑥⑧⑥⑧ |⑤-⑥-|
①②④③ |⑦-⑧-|
70
⑧⑥④口 |①-②-|
①⑧⑥④ |③-④-|
口⑦⑤口 |⑤-⑥-|
②口③口 |⑦-⑧-|
71
口口口② |①-②-|
①口口口 |③-④-|
④口口口
口③口口
口⑥口口
⑧⑦⑥口
口⑧⑦⑥ |⑤-⑥-|
⑤口⑧⑦ |⑦-⑧-|
72
①⑦③④ |①-②-|
口口⑥② |③-④-|
⑤口口⑧ |⑤-⑥-|
口口口口 |⑦-⑧-|
73
⑤⑦⑤⑦ |①-②-|
①口口③ |③-④-|
⑥⑧⑥⑧ |⑤-⑥-|
①②④③ |⑦-⑧-|
74
⑧⑥④口 |①-②-|
①⑧⑥④ |③-④-|
口⑦⑤口 |⑤-⑥-|
②口③口 |⑦-⑧-|
75
⑦⑦⑦⑦ |①-②-|
①口⑥⑥ |③-④-|
口口⑤③ |⑤-⑥-|
口②口④ |⑦---|
76
口口口口 |①---|
①口口口 |----|
口①口口 |----|
①口①口 |----|
不確定度: 0