Ultramarine
青龍

BASIC

Level: 4
BPM: 191
Notes: 239

1
口口口口 |----|
口口口口 |----|
口口口口 |----|
口口口口 |----|
2
口口口口 |----|
口口口口 |----|
口口口口 |----|
口口口口 |----|
3
①口口口 |①---|
口口口口 |----|
口口口口 |----|
口口口口 |----|
4
口口口口 |①---|
口①口口 |----|
口口口口 |----|
口口口口 |----|
5
口口口口 |①---|
口口口口 |----|
口口①口 |----|
口口口口 |----|
6
口口口口 |①---|
口口口口 |----|
口口口口 |----|
口口口① |----|
7
口口口① |①---|
口口口口 |----|
口口口口 |----|
口口口口 |----|
8
口口口口 |①---|
口口①口 |----|
口口口口 |----|
口口口口 |----|
9
口口口口 |①---|
口口口口 |----|
口①口口 |----|
口口口口 |----|
10
口口口口 |①---|
口口口口 |----|
口口口口 |----|
①口口口 |----|
11
口口口口 |----|
口口口口 |----|
口口口口 |----|
口口口口 |----|
12
口口口口 |----|
口口口口 |----|
口口口口 |----|
口口口口 |----|
13
①口口口 |①---|
口②口口 |----|
口口口口 |②---|
口口口口 |----|
14
口口口口 |①---|
口口口口 |----|
①口口口 |②---|
口②口口 |----|
15
口口口① |①---|
口口②口 |----|
口口口口 |②---|
口口口口 |----|
16
口口口口 |①---|
口口口口 |②---|
口口口① |----|
口口口② |----|
17
①口口口 |①---|
口②口口 |----|
口口口口 |②---|
口口口口 |----|
18
口口口口 |①---|
口口口口 |----|
①口口口 |②---|
口②口口 |----|
19
口口口口 |①---|
口口口② |----|
口口①口 |②---|
口口口口 |----|
20
口①①口 |①---|
口口口口 |----|
口口口口 |----|
口口口口 |----|
21
①口口口 |①---|
口②口口 |----|
口口口口 |②---|
口口口口 |----|
22
口口口口 |①---|
口口口口 |----|
①口口口 |②---|
口②口口 |----|
23
口口口① |①---|
口口②口 |----|
口口口口 |②---|
口口口口 |----|
24
口口口口 |①---|
口口口口 |②---|
口口口① |----|
口口口② |----|
25
①口口口 |①---|
口②口口 |----|
口口口口 |②---|
口口口口 |----|
26
口口口口 |①---|
口口口口 |----|
①口口口 |②---|
口②口口 |----|
27
口口口口 |①---|
口口口② |----|
口口①口 |②---|
口口口口 |----|
28
口①①口 |①---|
②口口口 |----|
口口口口 |②---|
口口口口 |----|
29
口①①口 |①---|
口②口口 |----|
口口③口 |②---|
口口口口 |③---|
30
口口口口 |①---|
口口口口 |----|
口口口口 |----|
口口口① |----|
31
①②口口 |①---|
口口③口 |②---|
口口口口 |③---|
口口口口 |----|
32
口口口口 |①---|
口口口口 |②---|
①口③口 |③---|
口②口④ |④---|
33
口口口口 |①---|
口口②① |②---|
④③口口 |③---|
口口口口 |④---|
34
口①①口 |①---|
口②②口 |②---|
④口口③ |③---|
口口口口 |④---|
35
①②口口 |①---|
口口③口 |②---|
口口口口 |③---|
口口口口 |----|
36
口口口口 |①---|
口口口口 |②---|
①口③口 |③---|
口②口④ |④---|
37
口口口口 |①---|
口口②① |②---|
④③口口 |③---|
口口口口 |④---|
38
口①①口 |①---|
口②②口 |②---|
口③③口 |③---|
口④④口 |④---|
39
口口口口 |①---|
②口口③ |②---|
口口口口 |③---|
①口口① |----|
40
①口口② |①---|
口口口口 |----|
口口口口 |②---|
口口口口 |----|
41
口口口口 |①---|
口①口口 |②---|
口口②口 |③---|
口口口③ |----|
42
②口口① |①---|
口口口口 |----|
口口口口 |②---|
口口口口 |----|
43
口口口口 |①---|
口②②口 |②---|
口①①口 |----|
口口口口 |----|
44
②口口① |①---|
口口口口 |----|
口口口口 |②---|
口口口口 |----|
45
口口口口 |①---|
口口①口 |②---|
口②口口 |③---|
③口口口 |----|
46
口口口口 |①---|
①口口② |----|
口口口口 |②---|
口口口口 |----|
47
口①①口 |①---|
②口口口 |----|
口口口口 |②---|
口口口口 |----|
48
①口口② |①---|
口口口口 |----|
口口口口 |②---|
口口口口 |----|
49
口口口口 |①---|
口①口口 |②---|
口口②口 |③---|
口口口③ |----|
50
②口口① |①---|
口口口口 |----|
口口口口 |②---|
口口口口 |----|
51
口口口口 |①---|
口②②口 |②---|
口①①口 |----|
口口口口 |----|
52
②口口① |①---|
口口口口 |----|
口口口口 |②---|
口口口口 |----|
53
口口口口 |①---|
口口①口 |②---|
口②口口 |③---|
③口口口 |----|
54
口口口口 |①---|
①口口② |----|
口口口口 |②---|
口口口口 |----|
55
口①①口 |①---|
②口口口 |----|
口口口口 |②---|
口口口口 |----|
56
口①①口 |①---|
口口③口 |----|
口②口口 |②---|
口口口口 |③---|
57
口口口① |①---|
口口口口 |----|
口口口口 |----|
口口口口 |----|
58
口口口口 |①---|
口①①口 |----|
口①①口 |----|
口口口口 |----|
59
口口口口 |----|
口口口口 |----|
口口口口 |----|
口口口口 |----|
60
口口口口 |①---|
口口口口 |----|
口口口口 |----|
口口①① |----|
61
口口口口 |①---|
口口口口 |----|
①①口口 |----|
口口口口 |----|
62
口口口口 |①---|
口口①① |----|
口口口口 |----|
口口口口 |----|
63
①①口口 |①---|
口口口口 |----|
口口口口 |----|
口口口口 |----|
64
口口口口 |①---|
口口口口 |----|
口口口口 |----|
①①口口 |----|
65
口口口口 |①---|
口口口口 |----|
口口①① |----|
口口口口 |----|
66
口口口口 |①---|
①①口口 |----|
口口口口 |----|
口口口口 |----|
67
口口①① |①---|
口口口口 |----|
口口口口 |----|
口口口口 |----|
68
口口口口 |①---|
口口口口 |----|
口口②口 |②---|
口①口口 |----|
69
口口②口 |①---|
口①口口 |----|
口口口口 |②---|
口口口口 |----|
70
口口口口 |①---|
口口口口 |----|
口②口口 |②---|
口口①口 |----|
71
口②口口 |①---|
口口①口 |----|
口口口口 |②---|
口口口口 |----|
72
口口口口 |①---|
口口口口 |----|
口口②口 |②---|
口①口口 |----|
73
口口②口 |①---|
口①口口 |----|
口口口口 |②---|
口口口口 |----|
74
口口口口 |①---|
口口口口 |----|
口②口② |②---|
①口①口 |----|
75
口②口② |①---|
①口①口 |----|
口口口口 |②---|
口口口口 |----|
76
口口口口 |----|
口口口口 |----|
口口口口 |----|
口口口口 |----|
77
口口口口 |----|
口口口口 |----|
口口口口 |----|
口口口口 |----|
78
口④口口 |①---|
③口口口 |②---|
②口口口 |③---|
口①口口 |④---|
79
口口④口 |①---|
口口口③ |②---|
口口口② |③---|
口口①口 |④---|
80
④口口口 |①---|
口③口口 |②---|
口②口口 |③---|
①口口口 |④---|
81
口口口④ |①---|
口口③口 |②---|
口口②口 |③---|
口口口① |④---|
82
口④口口 |①---|
③口口口 |②---|
②口口口 |③---|
口①口口 |④---|
83
口口④口 |①---|
口口口③ |②---|
口口口② |③---|
口口①口 |④---|
84
④口口口 |①---|
口③口口 |②---|
口②口口 |③---|
①口口口 |④---|
85
口口口④ |①---|
口口③口 |②---|
口口②口 |③---|
口口口① |④---|
86
口④口口 |①---|
③口口口 |②---|
②口口口 |③---|
口①口口 |④---|
87
口口④口 |①---|
口口口③ |②---|
口口口② |③---|
口口①口 |④---|
88
④口口口 |①---|
口③口口 |②---|
口②口口 |③---|
①口口口 |④---|
89
口口口④ |①---|
口口③口 |②---|
口口②口 |③---|
口口口① |④---|
90
口④口口 |①---|
③口口口 |②---|
②口口口 |③---|
口①口口 |④---|
91
口口④口 |①---|
口口口③ |②---|
口口口② |③---|
口口①口 |④---|
92
口口口口 |①---|
口口口口 |----|
②口口② |②---|
口①①口 |----|
93
口口口口 |①---|
口②④口 |②---|
口③①口 |③---|
口口口口 |④---|
94
①口口① |①---|
口口口口 |----|
口口口口 |----|
口口口口 |----|


不確定度: 0

最終更新:2013年03月17日 02:13