Ultramarine
青龍

ADVANCED

Level: 7
BPM: 191
Notes: 590

1
口口口口 |----|
口口口口 |----|
口口口口 |----|
口口口口 |----|
2
口口口口 |----|
口③口口 |①---|
口口②口 |②---|
口①口口 |③---|
3
口②①口 |①---|
口口③口 |----|
口口口口 |----|
口口口口 |②-③-|
4
口口口口 |①---|
口口口口 |②---|
①口口② |③---|
③口口④ |④---|
5
口口②口 |①---|
③口口口 |②---|
口①口口 |③---|
口口口口 |----|
6
口口口口 |①---|
口④口口 |②---|
②口口口 |③---|
口口③① |④---|
7
口②①口 |①---|
口口③口 |----|
口口口口 |----|
口口口口 |②-③-|
8
口口口口 |①---|
口口口口 |②---|
口①口② |③---|
③口④口 |④---|
9
口③口口 |①---|
口口②口 |②---|
口①口④ |③---|
口口口口 |④---|
10
口口口口 |----|
口口口口 |----|
口口口口 |----|
口口口口 |----|
11
口口口口 |----|
口口口口 |----|
口口口口 |----|
口口口口 |----|
12
口口口口 |----|
口③口口 |----|
口口②口 |--①-|
口①口口 |②-③-|
13
口②①口 |①---|
口口③口 |--②③|
④口口⑤ |④-⑤-|
⑥口口⑦ |⑥-⑦-|
14
口口口② |①-②-|
③⑦口口 |③---|
口①⑥口 |④-⑤-|
⑤口④口 |⑥-⑦-|
15
口②①口 |①---|
口口③口 |--②③|
④口口⑤ |④-⑤-|
⑥口口⑦ |⑥-⑦-|
16
口口口② |①-②-|
③⑦口④ |③-④-|
口①⑥口 |--⑤-|
口⑤口口 |⑥-⑦-|
17
口②①口 |①---|
口口③口 |--②③|
④口口⑤ |④-⑤-|
⑥口口⑦ |⑥-⑦-|
18
⑤口口② |①-②-|
③口⑥口 |③-④-|
⑦①④口 |⑤-⑥-|
⑧口⑦口 |⑦-⑧-|
19
⑦④口口 |①---|
口⑤口③ |--②③|
口②⑥口 |④-⑤-|
口口口① |⑥-⑦-|
20
口口口口 |①---|
口⑥①口 |②-③-|
口③⑤口 |--④-|
口④口② |⑤-⑥-|
21
口②①口 |①---|
口口③口 |--②③|
④口口⑤ |④-⑤-|
⑥口口⑦ |⑥-⑦-|
22
口口口② |①-②-|
③⑦口口 |③---|
口①⑥口 |④-⑤-|
⑤口④口 |⑥-⑦-|
23
口②①口 |①---|
口口③口 |--②③|
④口口⑤ |④-⑤-|
⑥口口⑦ |⑥-⑦-|
24
口口口② |①-②-|
③⑦口④ |③-④-|
口①⑥口 |--⑤-|
口⑤口口 |⑥-⑦-|
25
口②①口 |①---|
口口③口 |--②③|
④口口⑤ |④-⑤-|
⑥口口⑦ |⑥-⑦-|
26
⑤口口② |①-②-|
③口⑥口 |③-④-|
⑦①④口 |⑤-⑥-|
⑧口⑦口 |⑦-⑧-|
27
⑦④口口 |①---|
口⑤口③ |--②③|
口②⑥口 |④-⑤-|
口口口① |⑥-⑦-|
28
口口口③ |①---|
④口①口 |②-③-|
口②口⑤ |④-⑤-|
⑥口口⑦ |⑥-⑦-|
29
③口口口 |①---|
④①口口 |--②-|
⑤口②口 |③-④-|
⑥口口口 |⑤-⑥-|
30
口口口② |①---|
口口口口 |----|
口口口口 |②---|
口口口① |----|
31
①口②口 |①-②③|
口③口④ |④-⑤-|
⑩口口⑤ |⑥---|
⑨⑧⑦⑥ |⑦⑧⑨⑩|
32
口口口④ |①-②-|
①③⑤口 |③---|
口⑥②口 |④-⑤-|
口口口口 |⑥---|
33
①口②口 |①-②③|
⑦③口④ |④-⑤-|
⑧口⑩⑤ |⑥-⑦-|
⑨口口⑥ |⑧-⑨⑩|
34
口①口③ |①---|
口口④口 |②---|
口⑤口口 |③-④-|
口口②口 |⑤---|
35
①口②口 |①-②③|
口③口④ |④-⑤-|
⑩口口⑤ |⑥---|
⑨⑧⑦⑥ |⑦⑧⑨⑩|
36
口口口④ |①-②-|
①③⑤口 |③---|
口⑥②口 |④-⑤-|
口口口口 |⑥---|
37
①口②口 |①-②③|
⑦③口④ |④-⑤-|
⑧口⑩⑤ |⑥-⑦-|
⑨口口⑥ |⑧-⑨⑩|
38
①口口② |①---|
口口口口 |②---|
口口口口 |③---|
④口口③ |④---|
39
①口口② |①---|
口⑦④口 |②-③-|
口③⑥口 |④-⑤-|
口⑤口口 |⑥-⑦-|
40
口②①口 |①---|
口口③口 |--②③|
④口口⑤ |④-⑤-|
⑥口口⑦ |⑥-⑦-|
41
口口口② |①-②-|
③⑦口口 |③---|
口①⑥口 |④-⑤-|
⑤口④口 |⑥-⑦-|
42
口②①口 |①---|
口口③口 |--②③|
④口口⑤ |④-⑤-|
⑥口口⑦ |⑥-⑦-|
43
口口口② |①-②-|
③⑦口④ |③-④-|
口①⑥口 |--⑤-|
口⑤口口 |⑥-⑦-|
44
口②①口 |①---|
口口③口 |--②③|
④口口⑤ |④-⑤-|
⑥口口⑦ |⑥-⑦-|
45
⑤口口② |①-②-|
③口⑥口 |③-④-|
⑦①④口 |⑤-⑥-|
⑧口⑦口 |⑦-⑧-|
46
⑥④口口 |①---|
口口口③ |--②③|
口②⑤口 |④---|
口口口① |⑤-⑥-|
47
口口口口 |①---|
口⑥①口 |②-③-|
口③⑤口 |--④-|
口④口② |⑤-⑥-|
48
口②①口 |①---|
口口③口 |--②③|
④口口⑤ |④-⑤-|
⑥口口⑦ |⑥-⑦-|
49
口口口② |①-②-|
③⑦口口 |③---|
口①⑥口 |④-⑤-|
⑤口④口 |⑥-⑦-|
50
口②①口 |①---|
口口③口 |--②③|
④口口⑤ |④-⑤-|
⑥口口⑦ |⑥-⑦-|
51
口口口② |①-②-|
③⑦口④ |③-④-|
口①⑥口 |--⑤-|
口⑤口口 |⑥-⑦-|
52
口②①口 |①---|
口口③口 |--②③|
④口口⑤ |④-⑤-|
⑥口口⑦ |⑥-⑦-|
53
⑤口口② |①-②-|
③口⑥口 |③-④-|
⑦①④口 |⑤-⑥-|
⑧口⑦口 |⑦-⑧-|
54
⑦④口口 |①---|
口⑤口③ |--②③|
口②⑥口 |④-⑤-|
口口口① |⑥-⑦-|
55
口④口③ |①---|
口⑤①口 |--②-|
口②⑥口 |③-④-|
口口口口 |⑤-⑥-|
56
口口口③ |①---|
④口①口 |②-③-|
口②口⑤ |④-⑤-|
⑥口口⑦ |⑥-⑦-|
57
口口口口 |①---|
口①①口 |----|
口口口口 |----|
口口口口 |----|
58
①口口① |①---|
口①①口 |----|
①口口① |----|
口口口口 |----|
59
口口口口 |----|
口口口口 |----|
口口口口 |----|
口口口口 |----|
60
口⑤口口 |①---|
口④口口 |②---|
口③口口 |③--④|
①口口② |--⑤-|
61
口口⑤口 |--①-|
口口④口 |-②--|
口口③口 |③--④|
①口口② |--⑤-|
62
⑤口口口 |①---|
④口口口 |②---|
③口口口 |③--④|
①口口② |--⑤-|
63
口口口③ |--①-|
口口口④ |-②--|
口口口⑤ |③--④|
口①口② |--⑤-|
64
口⑤口口 |①---|
口④口口 |②---|
口③口口 |③--④|
①口口② |--⑤-|
65
口口⑤口 |--①-|
口口④口 |-②--|
口口③口 |③--④|
①口口② |--⑤-|
66
⑤口口口 |①---|
④口口口 |②---|
③口口口 |③--④|
①口口② |--⑤-|
67
口口口③ |--①-|
口口口④ |-②--|
口口口⑤ |③--④|
①口口② |--⑤-|
68
口⑤口口 |①---|
口口④口 |②---|
口③口口 |③--④|
①口口② |--⑤-|
69
口口⑤口 |--①-|
口④口口 |-②--|
口口③口 |③--④|
①口口② |--⑤-|
70
口⑤口口 |①---|
口口④口 |②---|
口③口口 |③--④|
①口口② |--⑤-|
71
口口③口 |--①-|
口④口口 |-②--|
口口⑤口 |③--④|
②口口① |--⑤-|
72
口⑤口口 |①---|
口口④口 |②---|
口③口口 |③--④|
口①口② |--⑤-|
73
口口⑤口 |--①-|
口④口口 |-②--|
口口③口 |③--④|
②口口① |--⑤-|
74
口口口口 |①---|
口口口② |----|
口口口口 |②---|
口①口口 |----|
75
口④④口 |①---|
⑤③③⑤ |②---|
②口口② |③---|
口①①口 |④-⑤-|
76
口口口口 |----|
口口口口 |----|
口口口口 |----|
口口口口 |----|
77
口口口口 |----|
口口口口 |----|
口口口口 |----|
口口口口 |----|
78
⑤口口⑤ |①---|
④②②④ |②---|
③口口③ |③--④|
口①①口 |--⑤-|
79
⑤②②⑤ |--①-|
④口口④ |-②--|
③①①③ |③--④|
口口口口 |--⑤-|
80
⑤口口⑤ |①---|
④②②④ |②---|
③①①③ |③--④|
口口口口 |--⑤-|
81
口③③口 |--①-|
④①①④ |-②--|
⑤②②⑤ |③--④|
口口口口 |--⑤-|
82
⑤口口⑤ |①---|
④②②④ |②---|
口口口口 |③--④|
③①①③ |--⑤-|
83
⑤②②⑤ |--①-|
④口口④ |-②--|
③①①③ |③--④|
口口口口 |--⑤-|
84
⑤口口⑤ |①---|
④②②④ |②---|
③①①③ |③--④|
口口口口 |--⑤-|
85
口③③口 |--①-|
④①①④ |-②--|
⑤②②⑤ |③--④|
口口口口 |--⑤-|
86
⑤口口⑤ |①---|
④②②④ |②---|
口口口口 |③--④|
③①①③ |--⑤-|
87
⑤②②⑤ |--①-|
④口口④ |-②--|
③①①③ |③--④|
口口口口 |--⑤-|
88
⑤口口⑤ |①---|
④②②④ |②---|
③①①③ |③--④|
口口口口 |--⑤-|
89
口③③口 |--①-|
④①①④ |-②--|
⑤②②⑤ |③--④|
口口口口 |--⑤-|
90
⑤口口⑤ |①---|
④②②④ |②---|
口口口口 |③--④|
③①①③ |--⑤-|
91
⑤②②⑤ |--①-|
④口口④ |-②--|
③①①③ |③--④|
口口口口 |--⑤-|
92
口口口口 |①---|
口②②口 |----|
口①①口 |②---|
口口口口 |----|
93
口④④口 |①---|
②口口③ |②---|
⑤②③⑤ |③--④|
口①①口 |--⑤-|
94
口口口口 |①---|
口①①口 |----|
口口口口 |----|
口①①口 |----|


不確定度: 0

最終更新:2013年03月17日 02:13