Ultramarine
青龍

EXTREME

Level: 9
BPM: 191
Notes: 746

1
口口口口 |----|
口口口口 |----|
口口口口 |----|
口口口口 |----|
2
口口口口 |----|
口口③口 |①---|
口②口口 |②---|
①口口口 |③---|
3
口④口① |①---|
②口⑤口 |②---|
口口口③ |③---|
口口口口 |④-⑤-|
4
口口口口 |①---|
口口口口 |②---|
①口口口 |③---|
口③②④ |④---|
5
口口②口 |①---|
③口口口 |②---|
口①口④ |③---|
口口口口 |④---|
6
口口口口 |①---|
口③口口 |②---|
口口④口 |③---|
①口口② |④---|
7
①口④口 |①---|
口⑤口② |②---|
③口口口 |③---|
口口口口 |④-⑤-|
8
口口口口 |①---|
口口口口 |②---|
口口口① |③---|
④②③口 |④---|
9
口②口口 |①---|
口口口③ |②---|
④口口① |③---|
口口口口 |④---|
10
口④口口 |①---|
口口③口 |②---|
口口口口 |③---|
②口口① |④---|
11
口口口口 |----|
口口口口 |----|
口口口口 |----|
口口口口 |----|
12
口口口口 |----|
口口③口 |----|
口②口口 |--①-|
①口口口 |②-③-|
13
⑥④口① |①-②-|
②口口⑦ |③-④⑤|
⑧口⑤③ |⑥-⑦-|
口①⑨口 |⑧-⑨-|
14
口④口口 |①-②-|
③⑦口口 |③-④-|
口②⑧口 |⑤-⑥-|
①⑤口⑥ |⑦-⑧-|
15
①⑥口④ |①-②-|
⑦口口② |③-④⑤|
③⑤口⑧ |⑥-⑦-|
口⑨口口 |⑧-⑨-|
16
③口④口 |①-②-|
口①⑦③ |③-④-|
口⑥②口 |--⑤-|
⑤口口① |⑥-⑦-|
17
⑥④口① |①-②-|
②口口⑦ |③-④⑤|
⑧口⑤③ |⑥-⑦-|
口口⑨口 |⑧-⑨-|
18
口④口口 |①-②-|
③⑦口口 |③-④-|
口②⑧口 |⑤-⑥-|
①⑤口⑥ |⑦-⑧-|
19
①⑥口④ |①-②-|
⑦口口② |③-④⑤|
③⑤口⑧ |⑥-⑦-|
口⑨口口 |⑧-⑨-|
20
⑤口④口 |①-②-|
口①⑧③ |③-④-|
口⑦②口 |⑤-⑥-|
⑥口口① |⑦-⑧-|
21
⑥④口① |①-②-|
②口口⑦ |③-④⑤|
⑧口⑤③ |⑥-⑦-|
口①⑨口 |⑧-⑨-|
22
口口④口 |①-②-|
③⑦口口 |③-④-|
口②⑧口 |⑤-⑥-|
①⑤口⑥ |⑦-⑧-|
23
①⑥口④ |①-②-|
⑦口口② |③-④⑤|
③⑤口⑧ |⑥-⑦-|
口⑨口口 |⑧-⑨-|
24
口口④口 |①-②-|
口①⑦③ |③-④-|
口⑥②口 |--⑤-|
⑤口口① |⑥-⑦-|
25
⑥④口① |①-②-|
②口口⑦ |③-④⑤|
⑧口⑤③ |⑥-⑦-|
口口⑨口 |⑧-⑨-|
26
口④口口 |①-②-|
③⑦口口 |③-④-|
口②⑧口 |⑤-⑥-|
①⑤口⑥ |⑦-⑧-|
27
①⑥口④ |①-②-|
⑦口口② |③-④⑤|
③⑤口⑧ |⑥-⑦-|
口⑨口口 |⑧-⑨-|
28
②口③口 |①---|
口口口④ |②-③-|
口⑤口口 |④-⑤-|
⑥口⑦① |⑥-⑦-|
29
⑤①口口 |①-②-|
口口②⑥ |③-④-|
④⑦口口 |⑤-⑥-|
口③口⑧ |⑦-⑧-|
30
口口口口 |①---|
①④口⑤ |----|
②口口② |②---|
口⑥口③ |③④⑤⑥|
31
②⑥①⑦ |①-②③|
口口⑤⑧ |④-⑤-|
口口③⑨ |⑥---|
④口口⑩ |⑦⑧⑨⑩|
32
口口口口 |①-②-|
③口口⑥ |③---|
口⑤②口 |④-⑤-|
口①④口 |⑥---|
33
②口口口 |①-②③|
口口口口 |④-⑤-|
口口③①
口④口⑤

口口口口
⑥口⑦口
口⑧口⑨ |⑥-⑦-|
⑩口口口 |⑧-⑨⑩|
34
口①口① |①---|
③②口② |②---|
口⑤口口 |③-④-|
口口口④ |⑤---|
35
②⑥①⑦ |①-②③|
口口⑤⑧ |④-⑤-|
口口③⑨ |⑥---|
④口口⑩ |⑦⑧⑨⑩|
36
口口口口 |①-②-|
③口口⑥ |③---|
口⑤②口 |④-⑤-|
口①④口 |⑥---|
37
②口口口 |①-②③|
口口口口 |④-⑤-|
口口③①
口④口⑤

口口口口
⑥⑩⑦口
口⑧口⑨ |⑥-⑦-|
口口口口 |⑧-⑨⑩|
38
③③①① |①---|
口口口口 |②---|
口口口口 |③---|
④④②② |④---|
39
口④口口 |①---|
②④⑦① |②-③-|
②⑥③① |④-⑤-|
⑤口③口 |⑥-⑦-|
40
⑥④口① |①-②-|
②口口⑦ |③-④⑤|
⑧口⑤③ |⑥-⑦-|
口口⑨口 |⑧-⑨-|
41
口④口口 |①-②-|
③⑦口口 |③-④-|
口②⑧口 |⑤-⑥-|
①⑤口⑥ |⑦-⑧-|
42
①⑥口④ |①-②-|
⑦口口② |③-④⑤|
③⑤口⑧ |⑥-⑦-|
口⑨口口 |⑧-⑨-|
43
③口④口 |①-②-|
口①⑧③ |③-④-|
口⑦②口 |⑤-⑥-|
⑥口⑤① |⑦-⑧-|
44
⑥④口① |①-②-|
②口口⑦ |③-④⑤|
⑧口⑤③ |⑥-⑦-|
口①⑨口 |⑧-⑨-|
45
口④口口 |①-②-|
③⑦口口 |③-④-|
口②⑧口 |⑤-⑥-|
①⑤口⑥ |⑦-⑧-|
46
①⑥口④ |①-②-|
⑦口口② |③-④⑤|
③⑤口⑧ |⑥-⑦-|
口⑨口口 |⑧-⑨-|
47
④口口口 |①-②-|
口①⑦③ |③-④-|
口⑥②口 |--⑤-|
⑤口口① |⑥-⑦-|
48
⑥④口① |①-②-|
②口口⑦ |③-④⑤|
⑧口⑤③ |⑥-⑦-|
口①⑨口 |⑧-⑨-|
49
口口口口 |①-②-|
③⑥口口 |③---|
口②⑦口 |④-⑤-|
①④口⑤ |⑥-⑦-|
50
①⑥口④ |①-②-|
⑦口口② |③-④⑤|
③⑤口⑧ |⑥-⑦-|
口⑨口口 |⑧-⑨-|
51
③口④口 |①-②-|
口①⑦③ |③-④-|
口⑥②口 |--⑤-|
⑤口口① |⑥-⑦-|
52
⑥④口① |①-②-|
②口口⑦ |③-④⑤|
⑧口⑤③ |⑥-⑦-|
口口⑨口 |⑧-⑨-|
53
口④口口 |①-②-|
③⑦①口 |③-④-|
口②⑧口 |⑤-⑥-|
①⑤口⑥ |⑦-⑧-|
54
①⑥①④ |①-②-|
⑦口⑥② |③-④⑤|
③⑤口⑧ |⑥-⑦-|
口⑨口口 |⑧-⑨-|
55
③口④口 |①-②-|
口口口口 |③-④-|
口口①口
口口②①

口口口口
口口口⑤
口⑥口口 |⑤-⑥-|
⑦口口⑧ |⑦-⑧-|
56
②⑧口③ |①-②-|
⑥①①⑦ |③-④-|
④口口⑤ |⑤-⑥-|
口口口口 |⑦-⑧-|
57
口口①口 |①---|
口②②口 |----|
口⑤⑥口 |②---|
口③④口 |③④⑤⑥|
58
口①①口 |①---|
①口口① |----|
口口口口 |----|
口口口口 |----|
59
口口口口 |----|
口口口口 |----|
口口口口 |----|
口口口口 |----|
60
口口口口 |①---|
口口口⑤ |②---|
②③④口 |③--④|
①口口口 |--⑤-|
61
⑤口口口 |--①-|
口④③口 |-②--|
口口口② |③--④|
口口口① |--⑤-|
62
口口口⑤ |①---|
④口③口 |②---|
口②口口 |③--④|
①口口口 |--⑤-|
63
口①口口 |--①-|
口③口口 |-②--|
口口②④ |③--④|
口口⑤口 |--⑤-|
64
口口口口 |①---|
口口口⑤ |②---|
②③④口 |③--④|
①口口口 |--⑤-|
65
⑤口口口 |--①-|
口④③口 |-②--|
口口口② |③--④|
口口口① |--⑤-|
66
口口口⑤ |①---|
④口③口 |②---|
口②口口 |③--④|
①口口口 |--⑤-|
67
①口口口 |--①-|
⑤③口② |-②--|
口口④口 |③--④|
口口口口 |--⑤-|
68
口④口口 |①---|
⑤口③⑤ |②---|
②③④② |③--④|
①口口① |--⑤-|
69
⑤口④口 |--①-|
口④③⑤ |-②--|
②口口② |③--④|
①③口① |--⑤-|
70
⑤口④⑤ |①---|
④口③口 |②---|
口②口② |③--④|
①③口① |--⑤-|
71
口①口口 |--①-|
⑤③③① |-②--|
②口②④ |③--④|
口④⑤口 |--⑤-|
72
⑤口口口 |①---|
口④③⑤ |②---|
②③④口 |③--④|
①口口① |--⑤-|
73
口①口① |①-②-|
口口口口 |-③--|
③口口③
②口口②

⑥口⑤⑥
④⑤④口
口口口口 |④--⑤|
口口口口 |--⑥-|
74
口⑤⑩口 |①②③-|
⑨⑪口④ |④-⑤-|
口①⑥口 |⑥⑦⑧-|
③⑦②⑧ |⑨-⑩⑪|
75
③口口④ |①②③④|
口口②⑧ |⑤⑥⑦⑧|
⑦⑤口①
②口⑥口

口⑨⑬口
⑫⑭口口
口口⑩⑮ |⑨⑩⑪⑫|
口⑯口⑪ |⑬⑭⑮⑯|
76
口口口口 |①---|
口口①口 |②---|
口②口口 |③---|
④口③口 |④---|
77
口⑤口④ |①②③④|
⑥口⑥③ |⑤---|
口口口② |⑥---|
⑦口⑦① |⑦---|
78
②口②口 |①---|
⑤①⑤① |②---|
口③①③ |③--④|
④口④口 |--⑤-|
79
①③①③ |--①-|
⑤②⑤② |-②--|
口口口口 |③--④|
④口④口 |--⑤-|
80
口③口③ |①---|
⑤②⑤② |②---|
①口①口 |③--④|
④①④口 |--⑤-|
81
①③①③ |--①-|
⑤②⑤② |-②--|
口口口口 |③--④|
④口④口 |--⑤-|
82
②口②口 |①---|
⑤口⑤口 |②---|
口③①③ |③--④|
④①④① |--⑤-|
83
①③①③ |--①-|
⑤②⑤② |-②--|
口口口口 |③--④|
④口④口 |--⑤-|
84
口③口③ |①---|
⑤②⑤② |②---|
①口①口 |③--④|
④①④口 |--⑤-|
85
②④②④ |①-②-|
⑥③⑥③ |-③--|
口口口口 |④--⑤|
⑤口⑤① |--⑥-|
86
②口②口 |①---|
⑤口⑤口 |②---|
口③①③ |③--④|
④①④① |--⑤-|
87
①③①③ |--①-|
⑤②⑤② |-②--|
口口口口 |③--④|
④口④口 |--⑤-|
88
口③口③ |①---|
⑤②⑤② |②---|
①口①口 |③--④|
④①④口 |--⑤-|
89
②④②④ |①-②-|
⑥③⑥③ |-③--|
口口口口 |④--⑤|
⑤口⑤① |--⑥-|
90
②口②口 |①---|
⑤口⑤口 |②---|
口③①③ |③--④|
④①④① |--⑤-|
91
②④②④ |①-②-|
⑥③⑥③ |-③--|
口口口口 |④--⑤|
⑤口⑤① |--⑥-|
92
口口口口 |①---|
口②口② |----|
①口①口 |②---|
口口口口 |----|
93
口⑤⑤口 |①---|
④口口④ |②---|
②③③② |③--④|
①口口① |--⑤-|
94
口口口口 |①---|
口①①口 |----|
口口口口 |----|
①口口① |----|


不確定度: 0

最終更新:2013年03月17日 02:13