My Babe Bee
Another Infinity feat. Mayumi Morinaga

BASIC

Level: 3
BPM: 138
Notes: 263

1
口口口口 |----|
口口口口 |----|
口口口口 |----|
口口口口 |----|
2
①口口口 |①---|
②口口口 |②---|
③口口口 |③---|
④口口口 |④---|
3
口口口口 |①---|
口口②口 |----|
口①口口 |②---|
口口口口 |----|
4
口口口① |①---|
口口口② |②---|
口口口③ |③---|
口口口④ |④---|
5
口口口口 |①---|
口②口口 |----|
口口①口 |②---|
口口口口 |----|
6
①口口口 |①---|
②口口口 |②---|
③口口口 |③---|
④口口口 |④---|
7
口口口口 |①---|
口口②口 |----|
口①口口 |②---|
口口口口 |----|
8
口口口① |①---|
口口口② |②---|
口口口③ |③---|
口口口④ |④---|
9
口口口口 |①---|
口口口口 |----|
口①①口 |----|
口口口口 |----|
10
①②③④ |①---|
口口口口 |②---|
口口口口 |③---|
口口口口 |④---|
11
口口口口 |①---|
口口①口 |----|
口口②口 |②---|
口口口口 |----|
12
口口口口 |①---|
口口口口 |②---|
口口口口 |③---|
④③②① |④---|
13
口口口口 |①---|
口②口口 |----|
口①口口 |②---|
口口口口 |----|
14
①②③④ |①---|
口口口口 |②---|
口口口口 |③---|
口口口口 |④---|
15
口口口口 |①---|
口口①口 |----|
口口②口 |②---|
口口口口 |----|
16
口口口口 |①---|
口口口口 |②---|
口口口口 |③---|
④③②① |④---|
17
口口口口 |①---|
口口口口 |----|
口①①口 |----|
口口口口 |----|
18
口②②口 |①---|
①口口① |----|
口口口口 |②---|
口口口口 |----|
19
①口口① |①---|
口②②口 |----|
口口口口 |②---|
口口口口 |----|
20
口口口口 |①---|
口口口口 |----|
①口口① |②---|
口②②口 |----|
21
口口口口 |①---|
口口口口 |----|
口②②口 |②---|
①口口① |----|
22
口②②口 |①---|
①口口① |----|
口口口口 |②---|
口口口口 |----|
23
①口口① |①---|
口②②口 |----|
口口口口 |②---|
口口口口 |----|
24
口口口口 |①---|
口口口口 |----|
①口口① |②---|
口②②口 |----|
25
口口口口 |①---|
口口口口 |----|
口②②口 |②---|
①口口① |----|
26
口口口口 |①---|
②①①口 |----|
口口口口 |----|
口口口口 |②---|
27
口口口口 |①---|
口口口口 |②---|
①口口④ |③---|
口②③口 |④---|
28
口口口口 |①---|
口口②① |②---|
口口口口
口口口口

口口口口
口口口③
口口口口 |----|
口口口口 |③---|
29
口口口口 |①---|
口口口口 |②---|
④口口① |③---|
口③②口 |④---|
30
②口口口 |①---|
口①①口 |----|
口口口口 |----|
口口口口 |②---|
31
口口口口 |①---|
①②口口 |②---|
口③④口 |③---|
口口口口 |④---|
32
口④口口 |①---|
口口③口 |②---|
口②口口 |③---|
口口①口 |④---|
33
口口口口 |①---|
①口口① |----|
口口口口 |----|
口口口口 |----|
34
口口口口 |①---|
口口③④ |②---|
①②口口 |③---|
口口口口 |④---|
35
口口口口 |①---|
④③口口 |②---|
口口②① |③---|
口口口口 |④---|
36
口口口口 |----|
口口口口 |----|
口口口口 |----|
口口口口 |----|
37
口①口口 |①---|
口②口口 |②---|
口口③口 |③---|
口口④口 |④---|
38
口口口口 |①---|
④③口口 |②---|
口口②① |③---|
口口口口 |④---|
39
口口口口 |①---|
口口③④ |②---|
①②口口 |③---|
口口口口 |④---|
40
口口①口 |①---|
口口②口 |②---|
口③口口 |③---|
口④口口 |④---|
41
口口口口 |①---|
口口口口 |----|
①口口① |----|
口口口口 |----|
42
①②③④ |①---|
口口口口 |②---|
口口口口 |③---|
口口口口 |④---|
43
口口口口 |①---|
口①①口 |----|
口②②口 |②---|
口口口口 |----|
44
口口口口 |①---|
口口口口 |②---|
口口口口 |③---|
④③②① |④---|
45
口口口口 |①---|
口②②口 |----|
口①①口 |②---|
口口口口 |----|
46
①②③④ |①---|
口口口口 |②---|
口口口口 |③---|
口口口口 |④---|
47
口口口口 |①---|
口①①口 |----|
口②②口 |②---|
口口口口 |----|
48
口口口口 |①---|
口口口口 |②---|
口口口口 |③---|
④③②① |④---|
49
口口口口 |①---|
口口口口 |----|
口①①口 |----|
口口口口 |----|
50
口②②口 |①---|
①口口① |----|
口口口口 |②---|
口口口口 |----|
51
口口口口 |①---|
口①④口 |②---|
口②③口 |③---|
口口口口 |④---|
52
口口口口 |①---|
口口口口 |----|
①口口① |②---|
口②②口 |----|
53
口口口口 |①---|
口③②口 |②---|
口④①口 |③---|
口口口口 |④---|
54
④口口口 |①---|
③口口口 |②---|
②口口口 |③---|
①口口口 |④---|
55
口①②③ |①---|
口口口④ |②---|
口口口口 |③---|
口口口口 |④---|
56
口口口口 |①---|
口口口口 |②---|
口口口① |③---|
口④③② |④---|
57
口口口口 |①---|
口④③口 |②---|
口①②口 |③---|
口口口口 |④---|
58
口②③口 |①---|
①口口④ |②---|
口口口口 |③---|
口口口口 |④---|
59
口口口口 |①---|
口①①口 |----|
口②②口 |②---|
口口口口 |----|
60
口口口口 |①---|
口口口口 |②---|
④口口① |③---|
口③②口 |④---|
61
口口口口 |①---|
口②②口 |----|
口①①口 |②---|
口口口口 |----|
62
①口口④ |①---|
口②③口 |②---|
口口口口 |③---|
口口口口 |④---|
63
口口口口 |①---|
①口口① |----|
②口口② |②---|
口口口口 |----|
64
口口口口 |①---|
口口口口 |②---|
口③②口 |③---|
④口口① |④---|
65
口口口口 |①---|
口口口口 |----|
①口口① |----|
口口口口 |----|
66
口口口口 |①---|
口口口口 |②---|
口口口口 |③---|
④③②① |④---|
67
口口口口 |--①-|
口④⑤⑥ |②-③-|
口①②③ |--④-|
口口口口 |⑤-⑥-|
68
④③②① |①---|
口口口口 |②---|
口口口口 |③---|
口口口口 |④---|
69
口口口口 |--①-|
①②③口 |②-③-|
④⑤⑥口 |④-⑤-|
口口口口 |⑥---|
70
口口口口 |①---|
口口口口 |②---|
口口口口 |③---|
①②③④ |④---|
71
口口口口 |--①-|
⑥⑤④口 |②-③-|
③②①口 |--④-|
口口口口 |⑤-⑥-|
72
①②③④ |①---|
口口口口 |②---|
口口口口 |③---|
口口口口 |④---|
73
口口口口 |①---|
①①①① |----|
口口口口 |----|
口口口口 |----|


不確定度: 0

最終更新:2013年03月17日 02:12