My Babe Bee
Another Infinity feat. Mayumi Morinaga

ADVANCED

Level: 6
BPM: 138
Notes: 556

1
口口口口 |----|
口口口口 |----|
口口口口 |----|
口口口口 |----|
2
口口①口 |①-②-|
⑤②口⑤ |③-④-|
⑥口③⑥ |⑤---|
口④口口 |⑥---|
3
口口⑤口 |--①-|
口⑥口④ |②-③-|
口②口口 |--④-|
①口③口 |⑤-⑥-|
4
口①口口 |①-②-|
⑤口②⑤ |③-④-|
⑥③口⑥ |⑤---|
口口④口 |⑥---|
5
口⑤口口 |--①-|
④口⑥口 |②-③-|
口口②口 |④-⑤-|
口③口① |⑥---|
6
口口①口 |①-②-|
⑤②口⑤ |③-④-|
⑥口③⑥ |⑤---|
口④口口 |⑥---|
7
口口⑤口 |--①-|
口⑥口④ |②-③-|
口②口口 |--④-|
①口③口 |⑤-⑥-|
8
口①口口 |①-②-|
口口②口 |③-④-|
口③口口
口口④口

口口口口
⑤⑦⑦⑤
⑥口口⑥ |⑤---|
口口口口 |⑥-⑦-|
9
口口口口 |----|
口①①口 |----|
口①①口 |----|
口口口口 |①---|
10
口口口① |①-②-|
②⑤⑤口 |③-④-|
口⑥⑥③ |⑤---|
④口口口 |⑥---|
11
口⑥口④ |--①-|
口口⑤口 |②-③-|
①口③口 |--④-|
口②口口 |⑤-⑥-|
12
①口口口 |①-②-|
口⑤⑤② |③-④-|
③⑥⑥口 |⑤---|
口口口④ |⑥---|
13
④口⑥口 |--①-|
口⑤口口 |②-③-|
口③口① |④-⑤-|
口口②口 |⑥---|
14
口口口① |①-②-|
②⑤⑤口 |③-④-|
口⑥⑥③ |⑤---|
④口口口 |⑥---|
15
口⑥口④ |--①-|
口口⑤口 |②-③-|
①口③口 |--④-|
口②口口 |⑤-⑥-|
16
①口口口 |①-②-|
口口口② |③-④-|
③口口口
口口口④

⑧口口⑧
⑦口口口
口口口⑥ |⑤-⑥-|
⑤口口口 |⑦-⑧-|
17
口口口口 |①--②|
口⑤⑤口 |--③-|
②⑤⑤④ |-④--|
口①③口 |⑤---|
18
口口⑩口 |①-②-|
⑨⑦⑧⑥ |③-④⑤|
口⑤口口 |⑥-⑦-|
①③②④ |⑧-⑨⑩|
19
①口⑨② |①-②-|
口③口④ |③-④⑤|
⑤⑦⑧⑥ |⑥-⑦-|
口口口口 |⑧-⑨-|
20
口口⑩口 |①-②-|
⑨⑦⑧⑥ |③-④⑤|
口⑤口口 |⑥-⑦-|
①③②④ |⑧-⑨⑩|
21
①口口② |①-②-|
口③口④ |③-④⑤|
⑤⑦⑧⑥ |⑥-⑦-|
口口口口 |⑧---|
22
口口⑩口 |①-②-|
⑨⑦⑧⑥ |③-④⑤|
口⑤口口 |⑥-⑦-|
①③②④ |⑧-⑨⑩|
23
①口⑨② |①-②-|
口③口④ |③-④⑤|
⑤⑦⑧⑥ |⑥-⑦-|
口口口口 |⑧-⑨-|
24
口口⑩口 |①-②-|
⑨⑦⑧⑥ |③-④⑤|
口⑤口口 |⑥-⑦-|
①③②④ |⑧-⑨⑩|
25
①口口② |①-②-|
口③口④ |③-④⑤|
⑤⑦⑧⑥ |⑥-⑦-|
口口口口 |⑧---|
26
口①口口 |①---|
①口③口 |----|
口口口口 |--②-|
口②口④ |③-④-|
27
口口④口 |--①-|
⑥①口③ |②-③-|
口口⑤口 |④-⑤-|
口口②口 |--⑥-|
28
口口口口 |①---|
口口①口 |②---|
口口②① |--③-|
④口③② |--④-|
29
③口④口 |--①-|
口②口口 |--②-|
口①口口 |③-④-|
口口口口 |----|
30
口④口② |①---|
口口口口 |----|
①口③口 |--②-|
口①口口 |③-④-|
31
口口②口 |--①-|
⑥口⑤口 |②-③-|
口③口① |④-⑤-|
口口④口 |--⑥-|
32
①口口① |①---|
口⑤⑥口 |②-③-|
口②③口 |④---|
④口口④ |⑤-⑥-|
33
口④④口 |①---|
口③③口 |②---|
口②②口 |③---|
口①①口 |④---|
34
口口口口 |①-②-|
⑧⑥⑦⑤ |③-④-|
①③②④ |⑤-⑥-|
口口口口 |⑦-⑧-|
35
口口口口 |①-②-|
口⑤⑤口 |③-④-|
口③②口 |--⑤-|
①口口④ |----|
36
口⑤⑥口 |①-②-|
④口口⑦ |③-④-|
③口口⑧ |⑤-⑥-|
口②①口 |⑦-⑧-|
37
⑤④④⑤ |①-②-|
口③口口 |③-④-|
口口②口 |--⑤-|
⑥①口⑦ |⑥-⑦-|
38
口口口口 |①-②-|
⑧⑥⑦⑤ |③-④-|
①③②④ |⑤-⑥-|
口口口口 |⑦-⑧-|
39
口口口口 |①-②-|
口⑤⑤口 |③-④-|
口③②口 |--⑤-|
①口口④ |----|
40
①①④④ |①---|
口②⑤口 |②-③-|
口⑥③口 |④---|
口口口口 |⑤-⑥-|
41
⑦⑦⑦⑦ |①-②-|
口⑤⑥口 |③-④-|
③口口④ |⑤-⑥-|
口①②口 |⑦---|
42
⑤口⑤口 |①-②-|
口②口④ |③-④-|
①口③口 |⑤---|
口⑥口⑥ |⑥---|
43
①口口口 |--①-|
口②⑥口 |②-③-|
③口口⑤ |--④-|
口口④口 |⑤-⑥-|
44
口⑤口⑤ |①-②-|
口③口① |③-④-|
④口②口 |⑤---|
⑥口⑥口 |⑥---|
45
口口口④ |--①-|
口③⑤口 |②-③-|
②口口⑥ |④-⑤-|
口①口口 |⑥---|
46
⑤口⑤口 |①-②-|
口②口④ |③-④-|
①口③口 |⑤---|
口⑥口⑥ |⑥---|
47
①口口口 |--①-|
口②⑥口 |②-③-|
③口口⑤ |--④-|
口口④口 |⑤-⑥-|
48
口口口口 |①-②-|
口③口① |③-④-|
④口②口
口口口口

口⑤口⑤
口口口口
口⑦⑦口 |⑤---|
⑥口⑥口 |⑥-⑦-|
49
口③②口 |①--②|
①⑤⑤④ |--③-|
口⑤⑤口 |-④--|
口口口口 |⑤---|
50
口⑨⑩口 |①-②-|
①口口⑧ |③-④⑤|
②④⑤⑦ |⑥-⑦-|
③口口⑥ |⑧-⑨⑩|
51
①口⑨② |①-②-|
口③口④ |③-④⑤|
⑤⑦⑧⑥ |⑥-⑦-|
口口口口 |⑧-⑨-|
52
口⑨⑩口 |①-②-|
①口口⑧ |③-④⑤|
②④⑤⑦ |⑥-⑦-|
③口口⑥ |⑧-⑨⑩|
53
①口口② |①-②-|
口③口④ |③-④⑤|
⑤⑦⑧⑥ |⑥-⑦-|
口口口口 |⑧---|
54
口口⑩口 |①-②-|
⑨⑦⑧⑥ |③-④⑤|
口⑤口口 |⑥-⑦-|
①③②④ |⑧-⑨⑩|
55
①口⑨② |①-②-|
口③口④ |③-④⑤|
⑤⑦⑧⑥ |⑥-⑦-|
口口口口 |⑧-⑨-|
56
口口⑩口 |①-②-|
⑨⑦⑧⑥ |③-④⑤|
口⑤口口 |⑥-⑦-|
①③②④ |⑧-⑨⑩|
57
①口口② |①-②-|
口③口④ |③-④⑤|
⑤⑦⑧⑥ |⑥-⑦-|
口口口口 |⑧---|
58
⑤口口① |①-②-|
口⑤②口 |③-④-|
口③⑥口 |⑤---|
④口口⑥ |⑥---|
59
口口口⑥ |--①-|
③口⑤口 |②-③-|
口②口④ |--④-|
①口口口 |⑤-⑥-|
60
①口口⑤ |①-②-|
口②⑤口 |③-④-|
口⑥③口 |⑤---|
⑥口口④ |⑥---|
61
④口口口 |--①-|
口⑤口③ |②-③-|
⑥口②口 |④-⑤-|
口口口① |⑥---|
62
口⑤口④ |①-②-|
⑤口③口 |③-④-|
口②口⑥ |⑤---|
①口⑥口 |⑥---|
63
口口口口 |--①-|
③口口⑥ |②-③-|
口⑤②口 |--④-|
口①④口 |⑤-⑥-|
64
④口口口 |①-②-|
口③口口 |③-④-|
口口②口
口口口①

口口⑤口
口⑦口⑤
⑥口⑦口 |⑤---|
口⑥口口 |⑥-⑦-|
65
口口口口 |①--②|
①⑥⑥② |--③-|
③⑤⑤④ |-④--|
口口口口 |⑤-⑥-|
66
口口口口 |①-②-|
口⑤⑥口 |③-④-|
③⑥⑤④ |⑤---|
口①②口 |⑥---|
67
⑥口口③ |--①-|
口口口口 |②-③-|
②口口⑤ |--④-|
④口口① |⑤-⑥-|
68
口①②口 |①-②-|
③⑤⑥④ |③-④-|
口⑥⑤口 |⑤---|
口口口口 |⑥---|
69
口口口④ |--①-|
③口口⑤ |②-③-|
②口口⑥ |④-⑤-|
①口口口 |⑥---|
70
口口口口 |①-②-|
⑥口口⑤ |③-④-|
⑤③④⑥ |⑤---|
①口口② |⑥---|
71
口③⑥口 |--①-|
口口口口 |②-③-|
口⑤②口 |--④-|
口①④口 |⑤-⑥-|
72
①口口② |①-②-|
口③④口 |③-④-|
⑤口口⑥ |⑤-⑥-|
口⑦⑧口 |⑦-⑧-|
73
①①口口 |①--②|
②②口口 |--③-|
口口③③
口口口口

⑤⑤⑤⑤
口口口口
口口口口 |-④--|
口口④④ |⑤---|


不確定度: 0

最終更新:2013年03月17日 02:12