My Babe Bee
Another Infinity feat. Mayumi Morinaga

EXTREME

Level: 8
BPM: 138
Notes: 863

1
口口口口 |----|
口口口口 |----|
口口口口 |----|
口口口口 |----|
2
①①口⑤ |①-②-|
口口④⑥ |③-④-|
口③口⑤ |⑤---|
②口口⑥ |⑥---|
3
口口口口 |--①-|
⑥⑤④口 |②-③-|
口①②③ |--④-|
口口口口 |⑤-⑥-|
4
⑤口①① |①-②-|
⑥④口口 |③-④-|
⑤口③口 |⑤---|
⑥口口② |⑥---|
5
口口③口 |--①-|
口④②口 |②-③-|
口⑤①口 |④-⑤-|
口⑥口口 |⑥---|
6
①①口⑤ |①-②-|
口口④⑥ |③-④-|
口③口⑤ |⑤---|
②口口⑥ |⑥---|
7
口口口口 |--①-|
⑥⑤④口 |②-③-|
口①②③ |--④-|
口口口口 |⑤-⑥-|
8
口口①① |①-②-|
口④口口 |③-④-|
口口③口
口口口②

⑤⑦⑦口
⑥口口口
⑤⑦⑦口 |⑤---|
⑥口口口 |⑥-⑦-|
9
①口口① |----|
①口口① |----|
①口口① |----|
口口口口 |①---|
10
口⑤⑤口 |①-②-|
⑤②①⑤ |③-④-|
⑥③④⑥ |⑤---|
口⑥⑥口 |⑥---|
11
口④⑤⑥ |--①-|
口①②③ |②-③-|
③②①口 |--④-|
⑥⑤④口 |⑤-⑥-|
12
口⑤⑤口 |①-②-|
⑤④③⑤ |③-④-|
⑥①②⑥ |⑤---|
口⑥⑥口 |⑥---|
13
口③口⑥ |--①-|
④②①⑤ |②-③-|
⑤①②④ |④-⑤-|
⑥口③口 |⑥---|
14
口⑤⑤口 |①-②-|
⑤②①⑤ |③-④-|
⑥③④⑥ |⑤---|
口⑥⑥口 |⑥---|
15
口④⑤⑥ |--①-|
口①②③ |②-③-|
③②①口 |--④-|
⑥⑤④口 |⑤-⑥-|
16
⑥⑤⑤⑥ |①-②-|
口②①口 |③-④-|
口③④口 |⑤-⑥-|
⑦⑧⑧⑦ |⑦-⑧-|
17
口③③口 |①--②|
①⑤⑤② |--③-|
①④④② |-④--|
口⑤⑤口 |⑤---|
18
⑦①②⑥ |①-②-|
③⑩⑤⑧ |③-④⑤|
⑧④⑨③ |⑥-⑦-|
②⑥⑦① |⑧-⑨⑩|
19
⑨①②⑨ |①-②-|
③⑦⑤⑥ |③-④⑤|
⑥④⑦③ |⑥-⑦-|
②⑧⑧① |⑧-⑨-|
20
⑦①②⑥ |①-②-|
③⑩⑤⑧ |③-④⑤|
⑧④⑨③ |⑥-⑦-|
②⑥⑦① |⑧-⑨⑩|
21
⑧①②⑧ |①-②-|
③口⑤⑥ |③-④⑤|
⑥④口③ |⑥-⑦-|
②⑦⑦① |⑧---|
22
⑦①②⑥ |①-②-|
③⑩⑤⑧ |③-④⑤|
⑧④⑨③ |⑥-⑦-|
②⑥⑦① |⑧-⑨⑩|
23
⑨①②⑨ |①-②-|
③⑦⑤⑥ |③-④⑤|
⑥④⑦③ |⑥-⑦-|
②⑧⑧① |⑧-⑨-|
24
⑦①②⑥ |①-②-|
③⑩⑤⑧ |③-④⑤|
⑧④⑨③ |⑥-⑦-|
②⑥⑦① |⑧-⑨⑩|
25
口①②口 |①-②-|
③口⑤口 |③-④⑤|
口④口③
②口口①

⑧⑧⑧⑧
口口口⑥
⑥口口口 |⑥-⑦-|
口⑦⑦口 |⑧---|
26
口口口口 |①---|
①①口口 |----|
口口①①
口口口口

口口口口
口③③口
④②②④ |--②-|
口口口口 |③-④-|
27
①②④③ |--①-|
口口口口 |②-③-|
口口口口 |④-⑤-|
⑥⑤⑤⑥ |--⑥-|
28
口口口口 |①---|
②②①① |②---|
①①②②
口口口口

口口口口
口口口口
③口口④ |--③-|
口③④口 |--④-|
29
口③③口 |--①-|
④①②④ |--②-|
口②①口 |③-④-|
口口口口 |----|
30
①口口① |①---|
口①①口 |----|
①③③① |--②-|
④②②④ |③-④-|
31
①②④③ |--①-|
口⑥口⑥ |②-③-|
⑤口⑤口 |④-⑤-|
口口口口 |--⑥-|
32
口口口③ |①---|
②口①口 |②-③-|
口①口①
口口①口

④⑤④口
口④口口
④口④⑥ |④---|
口口口口 |⑤-⑥-|
33
⑦⑥⑥⑦ |①-②-|
口④④⑤ |③-④-|
③②②口 |⑤-⑥-|
口口口① |⑦---|
34
口③⑦口 |①-②-|
⑧口口④ |③-④-|
②口口⑥ |⑤-⑥-|
口⑤①口 |⑦-⑧-|
35
口⑤⑤口 |①-②-|
口②①④ |③-④-|
③①②④ |--⑤-|
③口口口 |----|
36
①⑤⑨⑬ |①②③④|
②⑥⑩⑭ |⑤⑥⑦⑧|
③⑦⑪⑮ |⑨⑩⑪⑫|
④⑧⑫⑯ |⑬⑭⑮⑯|
37
①口口④ |①-②-|
⑤②③⑤ |③-④-|
⑥口口⑥ |--⑤-|
口⑦⑦口 |⑥-⑦-|
38
②口口③ |①-②-|
口⑦⑥口 |③-④-|
口⑧⑤口 |⑤-⑥-|
①口口④ |⑦-⑧-|
39
口④④口 |①-②-|
②⑤⑤① |③-④-|
①口口② |--⑤-|
口③③口 |----|
40
口口口口 |①---|
口口口口 |②-③-|
口①①口
①②③①

口口口口
口④④口
④⑤⑥④ |④---|
口口口口 |⑤-⑥-|
41
①②③④ |①②③④|
⑤⑥⑦⑧ |⑤⑥⑦⑧|
⑨⑩⑪⑫ |⑨⑩⑪⑫|
⑬⑬⑬⑬ |⑬---|
42
口⑤⑤口 |①-②-|
⑤②①⑤ |③-④-|
⑥③④⑥ |⑤---|
口⑥⑥口 |⑥---|
43
口④⑤⑥ |--①-|
口①②③ |②-③-|
③②①口 |--④-|
⑥⑤④口 |⑤-⑥-|
44
口⑤⑤口 |①-②-|
⑤④③⑤ |③-④-|
⑥①②⑥ |⑤---|
口⑥⑥口 |⑥---|
45
口③口⑥ |--①-|
④②①⑤ |②-③-|
⑤①②④ |④-⑤-|
⑥口③口 |⑥---|
46
口⑤⑤口 |①-②-|
⑤②①⑤ |③-④-|
⑥③④⑥ |⑤---|
口⑥⑥口 |⑥---|
47
口④⑤⑥ |--①-|
口①②③ |②-③-|
③②①口 |--④-|
⑥⑤④口 |⑤-⑥-|
48
⑥⑤⑤⑥ |①-②-|
口②①口 |③-④-|
口③④口 |⑤-⑥-|
⑦⑧⑧⑦ |⑦-⑧-|
49
⑤⑤⑤⑤ |①--②|
①④④② |--③-|
①③③② |-④--|
口口口口 |⑤---|
50
⑨④⑤⑩ |①-②-|
口⑧③口 |③-④⑤|
⑦口口② |⑥-⑦-|
口⑥①口 |⑧-⑨⑩|
51
口①口口 |①-②-|
③口⑤口 |③-④⑤|
口④口③
口口口②

⑨⑧⑧⑨
口⑦口⑥
⑥口⑦口 |⑥-⑦-|
口口口口 |⑧-⑨-|
52
⑨④⑤⑩ |①-②-|
口⑧③口 |③-④⑤|
⑦口口② |⑥-⑦-|
口⑥①口 |⑧-⑨⑩|
53
⑧①口⑧ |①-②-|
③口⑤⑥ |③-④⑤|
⑥④口③ |⑥-⑦-|
口⑦⑦② |⑧---|
54
⑦①②⑥ |①-②-|
③⑩⑤⑧ |③-④⑤|
⑧④⑨③ |⑥-⑦-|
②⑥⑦① |⑧-⑨⑩|
55
⑨①②⑨ |①-②-|
③⑦⑤⑥ |③-④⑤|
⑥④⑦③ |⑥-⑦-|
②⑧⑧① |⑧-⑨-|
56
⑦①②⑥ |①-②-|
③⑩⑤⑧ |③-④⑤|
⑧④⑨③ |⑥-⑦-|
②⑥⑦① |⑧-⑨⑩|
57
口①②口 |①-②-|
③口⑤口 |③-④⑤|
口④口③
②口口①

⑧⑧⑧⑧
口口口⑥
⑥口口口 |⑥-⑦-|
口⑦⑦口 |⑧---|
58
口口口口 |①-②③|
①①口④ |④-⑤-|
口③口口
口⑤口②

口口口口
⑨口口口
口口⑥⑥ |⑥⑦--|
⑦口⑧口 |⑧-⑨-|
59
⑥口⑥口 |--①-|
⑤③⑤③ |②-③-|
④②④② |--④-|
口①口① |⑤-⑥-|
60
口①口口 |①-②③|
⑤①口④ |④-⑤-|
口③口口
口口口②

口⑨口口
口口口口
⑦口⑥⑧ |⑥⑦--|
口口⑥口 |⑧-⑨-|
61
口⑥⑤④ |--①-|
①②③口 |②-③-|
口⑥⑤④ |④-⑤-|
①②③口 |⑥---|
62
①⑨口口 |①-②③|
①⑤②口 |④-⑤-|
⑦口⑧④ |⑥⑦--|
口③⑥⑥ |⑧-⑨-|
63
⑥口⑥口 |--①-|
⑤③⑤③ |②-③-|
④②④② |--④-|
口①口① |⑤-⑥-|
64
口⑤口口 |①-②③|
口③口口 |④-⑤-|
口①口④
口①②口

口口⑥口
口口⑥⑩
⑦⑨⑧口 |⑥⑦⑧-|
口口口口 |⑨-⑩-|
65
①④④① |①--②|
⑤④④⑤ |--③-|
⑤③③⑤ |-④--|
②③③② |⑤---|
66
①口⑥① |①-②③|
⑦⑥⑤口 |④-⑤-|
口⑧③⑨ |⑥⑦--|
④②⑧④ |⑧-⑨-|
67
口⑥③口 |--①-|
④②⑤① |②-③-|
①⑤②④ |--④-|
口③⑥口 |⑤-⑥-|
68
④口口④ |①-②③|
口②口口 |④-⑤-|
口口③⑤
①口口①

口⑥口口
⑦口⑥⑨
⑧口口口 |⑥⑦--|
口口口⑧ |⑧-⑨-|
69
口③口⑥ |--①-|
④②①⑤ |②-③-|
⑤①②④ |④-⑤-|
⑥口③口 |⑥---|
70
②⑥⑥⑨ |①-②③|
口①①⑤ |④-⑤-|
口④④口 |⑥⑦--|
⑦⑧⑧③ |⑧-⑨-|
71
口⑥③口 |--①-|
④②⑤① |②-③-|
①⑤②④ |--④-|
口③⑥口 |⑤-⑥-|
72
口口③口 |①-②③|
口口⑤口 |④-⑤-|
④口口④
①②口①

⑧⑦⑨⑧
⑥口口⑥
口口口口 |⑥⑦--|
口口口口 |⑧-⑨-|
73
③口口④ |①--②|
③⑤⑤④ |--③-|
③①②④ |-④--|
①②①② |⑤---|


不確定度: 0

最終更新:2013年03月17日 02:12