夢現
Another Infinity feat. Mayumi Morinaga

BASIC

Level: 2
BPM: 143
Notes: 142

1
口口口口 |----|
口口口口 |----|
口口口口 |----|
口口口口 |----|
2
口口口口 |①---|
口口口口 |----|
口口②口 |②---|
口①口口 |----|
3
口口口口 |①---|
口口口① |----|
口口口口 |----|
口口口口 |----|
4
口口口口 |①---|
口口口口 |----|
口②口口 |②---|
口口①口 |----|
5
口口口口 |①---|
①口口口 |----|
口口口口 |----|
口口口口 |----|
6
口口口口 |①---|
口口口口 |----|
口口口口 |②---|
口①②口 |----|
7
口③口口 |①---|
口②口口 |②---|
口①口口 |③---|
口口口口 |----|
8
口口口口 |①---|
口口②口 |----|
口口口口 |②---|
口口①口 |----|
9
口口口口 |①---|
口口口口 |----|
口①口口 |----|
口口口口 |----|
10
口口口口 |----|
口口口口 |----|
口口口口 |----|
口口口口 |----|
11
口口口口 |①---|
口口口口 |----|
口口口口 |②---|
①口口② |----|
12
口口口口 |①---|
口口口口 |----|
①口口② |②---|
口口口口 |----|
13
口口口口 |①---|
口口口口 |----|
口口口口 |②---|
口①②口 |----|
14
口口口口 |①---|
口口口口 |----|
口①②口 |②---|
口口口口 |----|
15
口口口口 |①---|
①口口② |----|
口口口口 |②---|
口口口口 |----|
16
①口口② |①---|
口口口口 |----|
口口口口 |②---|
口口口口 |----|
17
口口口口 |①---|
口①②口 |----|
口口口口 |②---|
口口口口 |----|
18
口①②口 |①---|
口口口口 |----|
口口口口 |②---|
口口口口 |----|
19
口口口口 |①---|
口口口口 |----|
②口口口 |②---|
口①口口 |----|
20
口口口口 |①---|
口①口口 |----|
口口口口 |----|
口口口口 |----|
21
口口口口 |①---|
口口口口 |----|
口口口② |②---|
口口①口 |----|
22
口口口口 |①---|
口口①口 |----|
口口口口 |----|
口口口口 |----|
23
口口口口 |①---|
口口口口 |----|
口口口口 |②---|
①口口② |----|
24
口口③口 |①---|
口口②口 |②---|
口口①口 |③---|
口口口口 |----|
25
口口口口 |①---|
口②口口 |----|
口口口口 |②---|
口①口口 |----|
26
口口口口 |①---|
口口口口 |----|
口口①口 |----|
口口口口 |----|
27
口①①口 |①---|
口口口口 |----|
口口②口 |②---|
口口口口 |----|
28
口口口口 |①---|
口②口口 |----|
口口口口 |②---|
口①①口 |----|
29
口口口口 |①---|
口口口口 |②---|
①②③④ |③---|
口口口口 |④---|
30
口口口口 |①---|
口①①口 |----|
口口口口 |②---|
口②②口 |----|
31
口口口口 |①---|
口口口口 |②---|
③口口口 |③---|
①口口② |----|
32
口口口口 |①---|
②口口③ |②---|
口口口① |③---|
口口口口 |----|
33
口口口口 |①---|
口口口口 |----|
口口口口 |②---|
口①②口 |----|
34
口口口口 |①---|
口①①口 |----|
口②②口 |②---|
口口口口 |----|
35
口口口口 |----|
口口口口 |----|
口口口口 |----|
口口口口 |----|
36
口口口口 |①---|
口口口口 |②---|
④③口口 |③---|
①②口口 |④---|
37
口口口口 |①---|
①②口口 |②---|
口口口口 |----|
口口口口 |----|
38
口口口口 |①---|
口口口口 |②---|
口口③④ |③---|
口口②① |④---|
39
口口口口 |①---|
口口②① |②---|
口口口口 |----|
口口口口 |----|
40
口口口口 |①---|
②口口② |----|
口口口口 |②---|
①口口① |----|
41
口①①口 |①---|
口②②口 |②---|
口③③口 |③---|
口口口口 |----|
42
口口口口 |①---|
②口口② |----|
口口口口 |②---|
口①①口 |----|
43
口口口口 |①---|
口口口口 |----|
口①①口 |----|
口口口口 |----|
44
口口口口 |①---|
口口口口 |②---|
④③口口 |③---|
①②口口 |④---|
45
口口口口 |①---|
①②口口 |②---|
口口口口 |----|
口口口口 |----|
46
口口口口 |①---|
口口口口 |②---|
口口③④ |③---|
口口②① |④---|
47
口口口口 |①---|
口口②① |②---|
口口口口 |----|
口口口口 |----|
48
口口口口 |①---|
②口口② |----|
口口口口 |②---|
①口口① |----|
49
口①①口 |①---|
口②②口 |②---|
口③③口 |③---|
口口口口 |----|
50
口口口口 |①---|
②口口② |----|
口口口口 |②---|
口①①口 |----|
51
口口口口 |①---|
口口口口 |----|
口①①口 |----|
口口口口 |----|
52
口口口口 |①---|
口口口口 |----|
口口口口 |②---|
①口口② |----|
53
口口口口 |①---|
口口口口 |----|
①口口② |②---|
口口口口 |----|
54
口口口口 |①---|
口口口口 |----|
口口口口 |②---|
口①②口 |----|
55
口口口口 |①---|
口口口口 |----|
口①②口 |②---|
口口口口 |----|
56
口口口口 |①---|
①口口② |----|
口口口口 |②---|
口口口口 |----|
57
①口口② |①---|
口口口口 |----|
口口口口 |②---|
口口口口 |----|
58
口口口口 |①---|
口①②口 |----|
口口口口 |②---|
口口口口 |----|
59
口①②口 |①---|
口口口口 |----|
口口口口 |②---|
口口口口 |----|


不確定度: 0

最終更新:2013年03月17日 02:12