夢現
Another Infinity feat. Mayumi Morinaga

ADVANCED

Level: 6
BPM: 143
Notes: 420

1
口口口口 |----|
口口口口 |----|
口口②口 |----|
口①口口 |①-②-|
2
③口口② |①---|
④①口口 |②---|
⑤口口口 |③--④|
口口口口 |--⑤-|
3
口口口口 |①-②③|
口口口② |----|
口⑤口③ |----|
口①④口 |④-⑤-|
4
②口口③ |①---|
口口①口 |②---|
口⑤口口 |③---|
④口口口 |④-⑤-|
5
口口口③ |①-②③|
口口口② |----|
口口①口 |----|
口口口口 |----|
6
②口口口 |①---|
口④⑤口 |②---|
口口③口 |③---|
①口口口 |④-⑤-|
7
口④③口 |①-②-|
②口口① |③-④-|
①口口②
口③④口

⑥口口口
口口⑤⑦
口⑤口口 |⑤---|
口口口口 |⑥-⑦-|
8
口口口口 |①---|
②口口口 |②---|
②口口口
口①口口

口口口口
口口口③
口口口③ |③---|
口④④口 |④---|
9
口①①口 |①---|
口①①口 |----|
口口口口 |----|
口口口口 |----|
10
口口口口 |----|
口口口口 |----|
口口口口 |----|
口口口口 |----|
11
②④②④ |①---|
口口口口 |②---|
口口口口 |③---|
①③①③ |④---|
12
口口口口 |①---|
③①②④ |②---|
④②①③ |③---|
口口口口 |④---|
13
口口口口 |①---|
④②②④ |②---|
③①①③ |③---|
口口口口 |④---|
14
①③②④ |①---|
口口口口 |②---|
口口口口 |③---|
②④①③ |④---|
15
②④②④ |①---|
口口口口 |②---|
口口口口 |③---|
①③①③ |④---|
16
口口口口 |①---|
③①②④ |②---|
④②①③ |③---|
口口口口 |④---|
17
口口口口 |①---|
④②②④ |②---|
③①①③ |③---|
口口口口 |④---|
18
①③②④ |①---|
口口口口 |②---|
口口口口 |③---|
②④①③ |④---|
19
②口口口 |①---|
口口口口 |②---|
口口口①
口口①口

口口口口
口③口口
口口④口 |③---|
口口⑤口 |④-⑤-|
20
口口口② |①-②③|
口口口③ |----|
口口口口 |----|
口①口口 |----|
21
口口口② |①---|
口③口口 |②---|
①④⑤口 |③--④|
口①口口 |--⑤-|
22
③口口口 |①-②③|
②口①口 |----|
口口口口 |----|
口口口口 |----|
23
②口口口 |①---|
口口口口 |②---|
口口口①
口口①口

口口口口
口③口口
口口④⑤ |③---|
口口口口 |④-⑤-|
24
③①②④ |①-②-|
④②①③ |③-④-|
口⑤⑤⑦ |⑤---|
⑥口口口 |⑥-⑦-|
25
③口口② |①---|
③口口② |②---|
①④④口 |③---|
口口口口 |④---|
26
口口口口 |①---|
口口口口 |----|
口口口口 |----|
口①①口 |----|
27
口①①口 |①---|
口口口口 |②-③④|
②口口口
口③④口

口口⑥⑤
口口口口
口口口口 |----|
口口口口 |--⑤⑥|
28
口①口口 |①---|
口口④口 |②-③④|
口③②③
口口④口

⑤⑥口口
口口口口
口口口口 |----|
口口口口 |--⑤⑥|
29
口口①口 |①--②|
口⑤⑦口 |--③-|
③⑥④② |④-⑤-|
口口口口 |⑥-⑦-|
30
①口口① |①--②|
②口口② |--③-|
③口口③
口口口口

口口口口
⑤口口口
口口口口 |④---|
口④④口 |--⑤-|
31
口口④⑤ |①-②-|
口③口⑥ |③-④⑤|
口①②口 |----|
口口口口 |--⑥-|
32
口口口口 |--①-|
④③口口 |②-③④|
口①②口 |----|
口口口口 |----|
33
①⑧④⑤ |①-②-|
口口口口 |③-④⑤|
②⑦③⑥ |--⑥-|
口口口口 |⑦-⑧-|
34
①口①口 |①--②|
口②口② |--③-|
③口③口 |④---|
④口④口 |----|
35
①口口② |①--②|
①⑤⑤② |--③-|
⑥③③⑥ |④---|
口④④口 |⑤-⑥-|
36
②口口② |①---|
口口口口 |②---|
口口口口
①口口①

口口口口
口口口口
④③④③ |③--④|
⑤口⑤口 |--⑤-|
37
②口口② |①-②③|
口③③口 |----|
口口口口
口①口①

口口口口
口口口口
④口口⑤ |----|
④口口⑤ |④-⑤-|
38
口②口② |①---|
口口口口 |②---|
口①口口
口①口口

口口口口
③口③口
口④口口 |③--④|
口口⑤口 |--⑤-|
39
口③③口 |①-②③|
口②②口 |----|
口口口口 |----|
口①口口 |----|
40
②口口② |①---|
口口⑤口 |②---|
口④口口 |③---|
①③③① |④-⑤-|
41
口④③口 |①-②-|
②口口① |③-④-|
①口口②
口③④口

口口口口
口口⑤⑥
⑦⑤口⑦ |⑤---|
⑥口口口 |⑥-⑦-|
42
口②②口 |①---|
①口口口 |②---|
口口口口
口口口①

口口口口
口③口③
④口④口 |③--④|
口⑤口⑤ |--⑤-|
43
②口口② |①-②③|
④③③④ |----|
⑤口口⑤ |----|
①口①口 |④-⑤-|
44
②口口② |①---|
口口口口 |②---|
口口口口
①口口①

口口口口
口口口口
④③④③ |③--④|
⑤口⑤口 |--⑤-|
45
②口口② |①-②③|
口③③口 |----|
口口口口
口①口①

口口口口
口口口口
④口口⑤ |----|
④口口⑤ |④-⑤-|
46
口②口② |①---|
③口③口 |②---|
口①口④ |③---|
口①⑤口 |④-⑤-|
47
口③③口 |①-②③|
口②②口 |----|
口口口口 |----|
口①口口 |----|
48
②口口② |①---|
口口⑤口 |②---|
口④口口 |③---|
①③③① |④-⑤-|
49
口④③口 |①-②-|
②口口① |③-④-|
①口口②
口③④口

口口口口
⑥口⑤口
⑦⑤口⑦ |⑤---|
口口口⑥ |⑥-⑦-|
50
口口口口 |①---|
口口口① |②---|
口口口口
①②②口

口口口口
③口口④
③口口④ |③---|
口口口口 |④---|
51
口①①口 |①---|
口①①口 |----|
口口口口 |----|
口口口口 |----|
52
口⑤④口 |①--②|
③⑥口口 |--③-|
①口口② |--④-|
口①口口 |⑤-⑥-|
53
口口⑥口 |①--②|
口④①口 |--③-|
②口⑤口 |--④-|
口口口③ |⑤-⑥-|
54
口④⑤口 |①--②|
口口⑥③ |--③-|
②口口① |--④-|
口口①口 |⑤-⑥-|
55
口⑥口口 |①--②|
口①④口 |--③-|
口⑤口② |--④-|
③口口口 |⑤-⑥-|
56
口⑤④口 |①--②|
③⑥口口 |--③-|
①口口② |--④-|
口①口口 |⑤-⑥-|
57
口口⑥口 |①--②|
口④①口 |--③-|
②口⑤口 |--④-|
口口口③ |⑤-⑥-|
58
口④⑤口 |①--②|
口口⑥③ |--③-|
②口口① |--④-|
口口①口 |⑤-⑥-|
59
口⑥口口 |①--②|
口①④口 |--③-|
口⑤口② |--④-|
③口口口 |⑤-⑥-|


不確定度: 0

最終更新:2013年03月17日 02:11