夢現
Another Infinity feat. Mayumi Morinaga

EXTREME

Level: 9
BPM: 143
Notes: 679

1
口口口口 |----|
口口口口 |----|
口②口口 |----|
①口口口 |①-②-|
2
②口口③ |①---|
口④①口 |②---|
口口⑤口 |③--④|
口口口口 |--⑤-|
3
口口口口 |①-②③|
②口口口 |----|
口③⑤口 |----|
口口①④ |④-⑤-|
4
③口口② |①---|
口①口口 |②---|
口口⑤口 |③---|
口④口口 |④-⑤-|
5
③口口口 |①-②③|
②①口口 |----|
口口口口 |----|
口口口口 |----|
6
②⑤口② |①---|
口口④口 |②---|
口口口口 |③---|
①③③① |④-⑤-|
7
⑤口②④ |①-②-|
①③口⑥ |③-④-|
口⑦①③ |⑤---|
②④⑤口 |⑥-⑦-|
8
口口口口 |①---|
②口口③ |②---|
②口①③ |③---|
②④④③ |④---|
9
①①①① |①---|
口①①口 |----|
口口口口 |----|
口口口口 |----|
10
口④③口 |----|
口②口口 |----|
①口口① |①-②③|
口口口口 |④---|
11
④口口口 |①--②|
口口口② |③-④-|
口口口口
①③①口

口口口口
口口⑧口
⑦⑦口⑤ |⑤-⑥-|
口口⑥口 |⑦-⑧-|
12
⑦①⑧⑤ |①--②|
③⑦⑤① |③-④-|
口口⑥② |⑤-⑥-|
④口口口 |⑦-⑧-|
13
④口口口 |①--②|
口口口② |③-④-|
口口口口
①③①口

口口口口
口⑧口口
⑦口⑦⑤ |⑤-⑥-|
口口⑥口 |⑦-⑧-|
14
口①口⑥ |①--②|
口口⑤① |③④⑤⑥|
口④口②
③口口口

⑦⑭口口
⑬⑧口口
⑫口⑨口 |⑦⑧⑨⑩|
口⑪口⑩ |⑪⑫⑬⑭|
15
④口口口 |①--②|
口口口② |③-④-|
口①③口
①口①口

口口口口
口口⑧口
⑦⑦口⑤ |⑤-⑥-|
口口⑥口 |⑦-⑧-|
16
⑦①⑧⑤ |①--②|
③⑦口① |③-④-|
口口⑥② |⑤-⑥-|
④口口口 |⑦-⑧-|
17
④口口口 |①--②|
口口口② |③-④-|
口①口口
①③①口

口口口⑤
口⑧⑤口
⑦⑥⑦⑤ |⑤-⑥-|
口口口口 |⑦-⑧-|
18
口口口③ |①--②|
②口口① |--③-|
口③口③
②①②①

④⑪口口
⑩⑤口口
⑨口⑥口 |④⑤⑥⑦|
口⑧口⑦ |⑧⑨⑩⑪|
19
②口口② |①---|
口③④口 |②---|
口⑤口③ |③---|
④口①口 |④-⑤-|
20
口口口口 |①-②③|
②口口口 |----|
口口口③ |----|
口口①口 |----|
21
②口口② |①---|
口口口口 |②---|
口①①口
口口口口

口口③口
口④口口
③口⑤口 |③--④|
口口口④ |--⑤-|
22
口③口③ |①-②③|
②口②口 |----|
口口口口 |----|
口①口口 |----|
23
②⑤口② |①---|
口口④口 |②---|
口口口口 |③---|
①③③① |④-⑤-|
24
⑤口②④ |①-②-|
①③口⑥ |③-④-|
口⑦①③ |⑤---|
②④⑤口 |⑥-⑦-|
25
④④④④ |①---|
②口口③ |②---|
口口①口 |③---|
②口口③ |④---|
26
口口口口 |①---|
③口口③ |----|
②①①② |②---|
口①①口 |③---|
27
④③口② |①---|
口①①口 |②-③④|
②口③④
口①①口

口口⑧口
口⑨口口
口口口口 |--⑤⑥|
⑤⑥⑦口 |⑦-⑧⑨|
28
口口口口 |①---|
②口③④ |②-③④|
口①①口
④③口②

⑤⑥⑦⑧
口口口口
⑪⑫⑩⑨ |⑤⑥⑦⑧|
口口口口 |⑨⑩⑪⑫|
29
②口口③ |①--②|
口①①口 |--③-|
口口口口
口口口口

口⑦口口
⑥口⑤④
口口口口 |④-⑤-|
口口口口 |⑥-⑦-|
30
口口口① |①--②|
口②③口 |--③-|
口③②口
①口口口

④⑧口口
口口口口
口口口口 |④⑤⑥⑦|
⑦⑥⑤④ |--⑧-|
31
口口①口 |①-②-|
口③②口 |③-④⑤|
口口口⑤
⑤口口④

⑥⑦⑧口
口口口口
口口⑨口 |--⑥⑦|
口口口口 |⑧-⑨-|
32
⑤⑧⑨口 |①-②-|
④⑦⑥⑤ |③-④⑤|
⑩①口⑪ |⑥⑦⑧⑨|
口②③口 |-⑩⑪-|
33
③口口① |①-②-|
口④②⑤ |③-④⑤|
口①③口
②⑤口④

口口⑥口
⑦口⑧口
⑥⑧口⑦ |--⑥-|
口口口口 |⑦-⑧-|
34
②④④② |①--②|
④口口④ |--③-|
③口口③ |④---|
①③③① |----|
35
口口口口 |①--②|
③口口③ |--③-|
①③③②
①口口②

④④④④
口④④口
口口口口 |④---|
⑤口口⑥ |⑤-⑥-|
36
②②②② |①---|
口③④口 |②---|
⑤①①③ |③--④|
口④⑤口 |--⑤-|
37
①④口口 |①-②③|
④口口② |----|
口③③口 |④---|
⑥口口⑤ |⑤-⑥-|
38
②口口② |①---|
口口口口 |②---|
口①①口
口口口口

口口③口
口④口口
③口⑤口 |③--④|
口口口④ |--⑤-|
39
口口口⑦ |①-②③|
③口⑥③ |④⑤⑥⑦|
②⑤口②
④①口口

⑪⑮口口
⑭⑩口口
⑬口⑨口 |⑧⑨⑩⑪|
口⑫口⑧ |⑫⑬⑭⑮|
40
口⑤②② |①---|
口口④口 |②---|
口①口口 |③---|
①③①③ |④-⑤-|
41
口口②④ |①-②-|
①③口口 |③-④-|
口口①③
②④口口

⑤口口口
⑦口⑥口
⑦口⑥口 |⑤---|
口口⑤口 |⑥-⑦-|
42
口②口② |①---|
口口口口 |②---|
口①口口
口①口口

口口口口
口口④口
口⑤③⑤ |③--④|
③④口口 |--⑤-|
43
①口①口 |①-②③|
口③口③ |--④-|
④口④口
口口②口

口⑥口口
⑥口⑤口
口⑥口⑤ |----|
口口⑤口 |⑤-⑥-|
44
口口口② |①---|
口①口口 |②---|
口口①口
②口口口

口口口口
口⑤⑤口
③口口④ |③--④|
口③④口 |--⑤-|
45
②口口② |①-②③|
口口口口 |----|
口①①口
③口口③

口⑥④口
⑥口⑤④
口⑥口⑤ |④---|
口口⑤口 |⑤-⑥-|
46
口口口② |①---|
口①口口 |②---|
口口①口
②口口口

口口口口
口口口口
④口⑤③ |③---|
口④③口 |④-⑤-|
47
口③③⑦ |①-②③|
②①⑥② |④⑤⑥⑦|
口⑤口口
④口口口

⑪⑮口口
⑭⑩口口
⑬口⑨口 |⑧⑨⑩⑪|
口⑫口⑧ |⑫⑬⑭⑮|
48
口⑤②② |①---|
口口④口 |②---|
口①口口 |③---|
①③①③ |④-⑤-|
49
⑤口②④ |①-②-|
①③口⑥ |③-④-|
口⑦①③ |⑤---|
②④⑤口 |⑥-⑦-|
50
口口①口 |①---|
②口口③ |②---|
②口①③ |③---|
②④④③ |④---|
51
口①①① |①--②|
②口①③ |--③-|
②口口③
口口口口

④⑪口口
⑩⑤口口
⑨口⑥口 |④⑤⑥⑦|
口⑧口⑦ |⑧⑨⑩⑪|
52
④口口口 |①--②|
口③口② |③-④-|
口口口口
①口①口

口口口口
口口⑧口
⑦⑦口⑤ |⑤-⑥-|
口口⑥口 |⑦-⑧-|
53
⑦①⑧⑤ |①--②|
③⑦⑤① |③-④-|
口口⑥② |⑤-⑥-|
④口口口 |⑦-⑧-|
54
④口口口 |①--②|
口口③② |③-④-|
口口口口
①口①口

口口口口
口口⑧口
⑦⑦口⑤ |⑤-⑥-|
口口⑥口 |⑦-⑧-|
55
⑦①⑧⑤ |①--②|
③⑦⑤① |③-④-|
口口⑥② |⑤-⑥-|
④口口口 |⑦-⑧-|
56
④口口口 |①--②|
口口③② |③-④-|
口①口口
①口①口

口口口口
口口⑧口
⑦⑦口⑤ |⑤-⑥-|
口口⑥口 |⑦-⑧-|
57
⑦①⑧⑤ |①--②|
③⑦⑤① |③-④-|
口口⑥② |⑤-⑥-|
④口口口 |⑦-⑧-|
58
④口口口 |①--②|
口口口② |③-④-|
口①口口
①③①口

口口口⑤
口⑧⑤口
⑦⑥⑦⑤ |⑤-⑥-|
口口口口 |⑦-⑧-|
59
口口口③ |①--②|
②口口① |--③-|
口③口③
②①②①

④⑪口口
⑩⑤口口
⑨口⑥口 |④⑤⑥⑦|
口⑧口⑦ |⑧⑨⑩⑪|
60
⑤口①口 |①-②-|
口⑧④口 |③-④-|
口③⑦口 |⑤-⑥-|
②口口⑥ |⑦-⑧-|
61
口④①口 |①-②-|
口口口口 |③-④-|
③口口口
口②口口

口口口口
口口⑥口
口口口⑤ |--⑤-|
口⑦口口 |⑥-⑦-|
62
⑤口口① |①-②-|
口⑧④口 |③-④-|
口③⑦口 |⑤-⑥-|
②口口⑥ |⑦-⑧-|
63
口④①口 |①-②-|
口口口口 |③-④-|
③口口口
口②口口

口口口口
口口⑥口
口口口⑤ |--⑤-|
口⑦口口 |⑥-⑦-|
64
⑤口口① |①-②-|
口⑧④口 |③-④-|
口③⑦口 |⑤-⑥-|
②口口⑥ |⑦-⑧-|
65
口④①口 |①-②-|
口口口口 |③-④-|
③口口口
口②口口

口口口口
口口⑥口
口口口⑤ |--⑤-|
口⑦口口 |⑥-⑦-|
66
⑤口口① |①-②-|
口⑧④口 |③-④-|
口③⑦口 |⑤-⑥-|
②口口⑥ |⑦-⑧-|
67
⑥④①口 |①-②-|
口⑦口口 |③-④-|
③口口⑤ |--⑤-|
口②口口 |⑥-⑦-|


不確定度: 0

最終更新:2013年03月17日 02:11