アシタカセッ記
新井 大樹

BASIC

Level: 2
BPM: 135
Notes: 189

1
口口口口 |----|
口口口口 |----|
口口口口 |----|
口口口口 |----|
2
口口口口 |①---|
①口口口 |----|
口口②口 |②---|
口口口口 |----|
3
口口口口 |①---|
口①口口 |----|
口口口② |②---|
口口口口 |----|
4
口口口口 |①---|
口口口口 |----|
①口口口 |②---|
口口②口 |----|
5
口口口口 |①---|
口口口口 |----|
口①口口 |②---|
口口口② |----|
6
口口口口 |①---|
①口口口 |----|
口口②口 |②---|
口口口口 |----|
7
口口口口 |①---|
口①口口 |----|
口口口② |②---|
口口口口 |----|
8
口口口口 |①---|
口口口口 |----|
①口口口 |②---|
口口②口 |----|
9
口口口口 |①---|
口口口口 |----|
口①口口 |②---|
口口口② |----|
10
口口口口 |----|
口口③口 |①---|
①②口口 |②---|
口口口口 |③---|
11
口口口口 |①---|
口口口① |②---|
口口③② |----|
口口口口 |③---|
12
口口口口 |①---|
②③口口 |②---|
口①口口 |----|
口口口口 |③---|
13
口①③口 |①---|
口口口口 |----|
口②口口 |②---|
口口口口 |③---|
14
口②口口 |①---|
口口③口 |②---|
口口①④ |③---|
口口口口 |④---|
15
口口口口 |①---|
口口口口 |----|
口口口口 |----|
口①①口 |----|
16
口口口口 |①---|
口口口① |②---|
口口③② |----|
口口口口 |③---|
17
口口口口 |①---|
②口口口 |②---|
口①口口 |----|
口口口口 |----|
18
口①口口 |①---|
口口②口 |----|
口口口口 |②---|
口口口口 |----|
19
口口口① |①---|
口口口口 |----|
口口口口 |----|
口口口口 |----|
20
口口口口 |①---|
口口口① |②---|
口口③② |----|
口口口口 |③---|
21
口口口口 |①---|
②口口口 |②---|
口①口口 |----|
口口口口 |----|
22
口①口口 |①---|
口口口口 |----|
口②口口 |②---|
口口口口 |----|
23
口口①口 |①---|
口口口口 |----|
口口②口 |②---|
口口③口 |③---|
24
口口口② |①---|
口①①口 |----|
口口口口 |②---|
口口口口 |----|
25
口口口口 |①---|
口口口① |----|
口口口② |②---|
口口口口 |----|
26
口口口口 |①---|
口口口口 |----|
口口口口 |②---|
口③②① |③---|
27
口口口口 |①---|
口口口口 |----|
①口口口 |----|
口口口口 |----|
28
②口口口 |①---|
口口口口 |----|
口①①口 |②---|
口口口口 |----|
29
口口口口 |①---|
①口口口 |----|
②口口口 |②---|
口口口口 |----|
30
口口口口 |①---|
口口口口 |----|
口口口口 |②---|
①②③口 |③---|
31
口口口口 |①---|
②③口口 |----|
口口口① |②---|
口口口口 |③---|
32
口口口口 |①---|
口口①口 |----|
口②③口 |②---|
口口口口 |③---|
33
口口口口 |①---|
口口③② |②---|
口口口① |③---|
口口口口 |----|
34
口口口口 |①---|
口口口口 |----|
①②③① |②---|
口口口口 |③---|
35
口口口口 |①---|
口口口口 |----|
口口口口 |----|
口口口① |----|
36
口口口口 |①---|
口口口口 |----|
①口口① |----|
口口口口 |----|
37
口口口口 |----|
口口口口 |----|
口口口口 |----|
口口口口 |----|
38
口③③口 |①---|
口②②口 |②---|
口①①口 |③---|
口口口口 |----|
39
口口口口 |①---|
口口口① |②---|
口口③② |----|
口口口口 |③---|
40
口口口口 |①---|
②口口口 |②---|
口①口口 |----|
口口口口 |----|
41
口①口口 |①---|
口口②口 |----|
口口口口 |②---|
口口口口 |----|
42
口口口口 |①---|
口口口口 |----|
口口口① |----|
口口口口 |----|
43
口口口口 |①---|
口口口口 |----|
①②②① |②---|
口口口口 |----|
44
口口口口 |①---|
①口口① |②---|
②口口② |③---|
③口口③ |----|
45
口口口口 |①---|
口口口口 |----|
口①①口 |②---|
口②②口 |----|
46
①口口① |①---|
口②②口 |②---|
口③③口 |③---|
口④④口 |④---|
47
口口口口 |①---|
口口口口 |----|
①口口① |----|
口口口口 |----|
48
口口口口 |①---|
①口口① |----|
口口口口 |----|
口口口口 |----|
49
①口口① |①---|
口口口口 |----|
口口口口 |----|
口口口口 |----|
50
口口口口 |①---|
①口②口 |②---|
口③口④ |③---|
口口口口 |④---|
51
口口口口 |①---|
口①口② |②---|
口③口④ |③---|
口口口口 |④---|
52
口口口口 |①---|
①口②口 |②---|
口③口④ |③---|
口口口口 |④---|
53
口口口口 |①---|
口①口② |②---|
口③口④ |③---|
口口口口 |④---|
54
口口口口 |①---|
口①④口 |②---|
口③②口 |③---|
口口口口 |④---|
55
口口口口 |①---|
①口口④ |②---|
③口口② |③---|
口口口口 |④---|
56
口①②口 |①---|
口③④口 |②---|
口口口口 |③---|
口口口口 |④---|
57
口口口口 |①---|
口口口口 |②---|
口①②口 |③---|
口③④口 |④---|
58
口②②口 |①---|
口口口口 |----|
①口口① |②---|
口口口口 |----|
59
口口口口 |①---|
口①①口 |----|
口②②口 |②---|
口口口口 |----|
60
口口口口 |①---|
口口③口 |----|
口②口口 |②---|
口①①口 |③---|
61
口口口① |①---|
口口口口 |----|
口口口口 |----|
口口口口 |----|
62
口②②口 |①---|
口口口口 |----|
①口口① |②---|
口口口口 |----|
63
口口口口 |①---|
口①①口 |----|
口②②口 |②---|
口口口口 |----|
64
口口口口 |①---|
口③口口 |----|
口口②口 |②---|
口①①口 |③---|
65
①口口口 |①---|
口口口口 |----|
口口口口 |----|
口口口口 |----|
66
口口口口 |①---|
口①①口 |----|
口①①口 |----|
口口口口 |----|


不確定度: 0

最終更新:2013年03月17日 02:11