アシタカセッ記
新井 大樹

ADVANCED

Level: 6
BPM: 135
Notes: 472

1
口口口口 |----|
口口口口 |----|
口口口口 |----|
口口口口 |----|
2
口口口口 |①---|
口口⑤⑤ |②---|
③④②② |③-④-|
①①口口 |⑤---|
3
口口③③ |①-②-|
①②口口 |③---|
④口口④ |④---|
口⑤⑤口 |⑤---|
4
口口②② |①---|
①①⑤⑤ |②---|
③④口口 |③-④-|
口口口口 |⑤---|
5
口口③③ |①-②-|
①②口口 |③---|
口口口口
口口口口

口口口口
口⑤⑤口
④口口④ |④---|
口口口口 |⑤---|
6
口口口口 |①---|
口口⑤⑤ |②---|
③④②② |③-④-|
①①口口 |⑤---|
7
口口③③ |①-②-|
①②口口 |③---|
④口口④ |④---|
口⑤⑤口 |⑤---|
8
口口②② |①---|
①①⑤⑤ |②---|
③④口口 |③-④-|
口口口口 |⑤---|
9
口口③③ |①-②-|
①②口口 |③---|
口口口口
口口口口

口口口口
口⑤⑤口
④口口④ |④---|
口口口口 |⑤---|
10
口口④口 |①---|
①③口① |②---|
②口口口 |③---|
①口口① |④---|
11
口口口① |①---|
口口口② |②---|
口口③口 |----|
口④口口 |③-④-|
12
口口⑥③ |①-②-|
口⑤③口 |③---|
④②口口 |--④-|
①口口口 |⑤-⑥-|
13
口口口① |①---|
口口④口 |----|
口口②② |②---|
③口口口 |③-④-|
14
口口③口 |①---|
口口口口 |②-③-|
②①口口
口口口口

口口口口
口口口④
口⑦口⑤ |④-⑤-|
口口⑥口 |⑥-⑦-|
15
口口口口 |①---|
口①①口 |----|
口口口口
口口口口

口口④口
口③口口
②口口口 |--②-|
口口口口 |③-④-|
16
口口口① |①---|
口口口② |②---|
口口③口 |----|
口④口口 |③-④-|
17
口口⑥③ |①-②-|
口⑤③口 |③---|
④②口口 |--④-|
①口口口 |⑤-⑥-|
18
口口口① |①---|
口口口③ |--②-|
口②口口 |③---|
④口口口 |--④-|
19
口口④口 |①---|
口③口口 |----|
②口①口 |--②-|
口口口口 |③-④-|
20
口口口① |①---|
口口口② |②---|
口口③口 |----|
口④口口 |③-④-|
21
口口⑥③ |①-②-|
口⑤③口 |③---|
④②口口 |--④-|
①口口口 |⑤-⑥-|
22
口口口① |①---|
口口口口 |----|
口口口口
口口口口

口口口④
口③口口
口②②口 |②---|
口口口口 |③-④-|
23
口口③口 |①---|
②口口口 |②-③-|
口口口口
口①①口

口口口口
口口口④
口⑦⑤口 |④-⑤-|
口⑥口口 |⑥-⑦-|
24
口口②② |①---|
口①①口 |----|
口口口口 |②---|
口口口口 |----|
25
口口口口 |①---|
口①①口 |----|
②②口口 |②---|
口口口口 |----|
26
口口口口 |①---|
口③③口 |----|
②②口口 |②---|
口①①口 |③---|
27
口口①① |①---|
口口口口 |----|
口口口口 |----|
口口口口 |----|
28
口口②② |①---|
①口口① |----|
①口口① |②---|
口口口口 |----|
29
口口口口 |①---|
口①①口 |----|
②②口口 |②---|
口口口口 |----|
30
口口口口 |①---|
口③③口 |----|
②②口口 |②---|
口①①口 |③---|
31
口口①① |①---|
口口口口 |----|
②口③口 |②---|
口口口口 |③---|
32
口口口口 |①---|
①①①① |----|
口口口口
口口口口

口口口④
口口③⑤
口②口口 |②-③-|
口口口口 |④-⑤-|
33
口口口口 |①---|
⑤⑥口口 |②-③-|
④②①口 |④---|
③口口口 |⑤-⑥-|
34
口口口口 |①---|
口口①① |----|
口口口口
口口口口

口口口④
口③⑤⑤
②口口口 |②-③-|
口口口口 |④-⑤-|
35
口口口口 |①---|
口口口口 |----|
口①①口 |----|
口口口口 |----|
36
口口④④ |①-②-|
①口口① |③-④-|
①③口①
口②口口

口口口口
口口口口
口⑥口口 |----|
口⑤口口 |--⑤⑥|
37
口口口④ |①-②-|
口③①⑤ |③-④-|
②口⑥口 |--⑤⑥|
口⑦口口 |⑦---|
38
口④④口 |①---|
③②②③ |②---|
①口口① |③---|
口口口口 |--④-|
39
①口口① |①---|
口②②口 |②---|
口口③口 |----|
口④口口 |③-④-|
40
口口⑥③ |①-②-|
口⑤③口 |③---|
④②口口 |--④-|
①口口口 |⑤-⑥-|
41
口口口① |①---|
口口口③ |--②-|
口②口口 |③---|
④口口口 |--④-|
42
口口口口 |①---|
口口口口 |----|
口口①口
口口口口

口口口口
口口口⑤
口③④口 |----|
②口口口 |②③④⑤|
43
①口口① |①---|
口口口口 |----|
口口口口
口口口口

⑤口口⑤
③④④③
②口口② |②-③-|
口口口口 |④-⑤-|
44
口口口口 |①---|
口口口口 |②---|
②①①②
口口口口

口口口口
③⑥⑦③
口⑤口口 |③---|
④口口口 |④⑤⑥⑦|
45
①口口① |①---|
口④④口 |----|
口③③口 |②---|
口②②口 |③-④-|
46
①①①① |①---|
②③③② |②---|
②④④② |③---|
口口口口 |④---|
47
口口口口 |①---|
①③口① |----|
口②口口 |----|
口口口口 |②-③-|
48
①①①① |①---|
口口口口 |----|
口口口口
口口口口

口④④口
口③③口
口②②口 |--②-|
口口口口 |③-④-|
49
口②③口 |①---|
①④⑤① |----|
①⑥⑦① |②③④⑤|
口⑧⑨口 |⑥⑦⑧⑨|
50
口③③口 |①-②-|
①④④① |③-④-|
②口口②
口口口口

⑤口口⑤
口口口口
⑧⑥⑥⑧ |⑤-⑥-|
口⑦⑦口 |⑦-⑧-|
51
③①①③ |①-②-|
⑤②②⑤ |③-④-|
⑥④④⑥ |⑤-⑥-|
⑧⑦⑦⑧ |⑦-⑧-|
52
口口①① |①-②-|
②②③③ |③-④-|
④④口口
口口口口

口口口口
⑧⑧口口
口口⑤⑤ |⑤-⑥-|
⑥⑥⑦⑦ |⑦-⑧-|
53
②②①① |①-②-|
⑧⑧③③ |③-④-|
④④⑤⑤ |⑤-⑥-|
⑥⑥⑦⑦ |⑦-⑧-|
54
口口口口 |①---|
口口①① |----|
②口口② |②---|
口口口口 |----|
55
口口口口 |①---|
口①①口 |----|
②口口② |②---|
口口口口 |----|
56
口口口口 |①---|
口口口口 |②---|
②①①② |③---|
④③③④ |④---|
57
口口口口 |①---|
④①①④ |②---|
②③③② |③---|
④口口④ |④---|
58
①口②① |①---|
口①①② |----|
口②口口 |②---|
口口②口 |----|
59
口①口口 |①---|
①口②口 |----|
口②①② |②---|
口①②口 |----|
60
口口口口 |①---|
口①口口 |----|
①口①口
口①口口

口口口口
口口口③
口口③② |②---|
口③②口 |③---|
61
口①口口 |①---|
①口①口 |----|
口①口口 |----|
口口口口 |----|
62
口口②口 |①---|
①口①② |----|
口②口口 |②---|
口①②① |----|
63
口①口口 |①---|
①口②口 |----|
口②①② |②---|
口①②口 |----|
64
口口口口 |①---|
口①口口 |----|
①口①口
口①口口

口口口口
口口口③
口口③② |②---|
口③②口 |③---|
65
②①口③ |①---|
①口①口 |----|
口①口口 |②---|
③口口② |③---|
66
口①①口 |①---|
①口口① |----|
口①①口 |----|
口口口口 |----|


不確定度: 0

最終更新:2013年03月17日 02:10