アシタカセッ記
新井 大樹

EXTREME

Level: 8
BPM: 135
Notes: 661

1
口口口口 |----|
口口口口 |----|
口口口口 |----|
口口口口 |----|
2
口口口口 |①-②-|
口口⑥⑥ |③---|
④⑤③③ |④-⑤-|
①②口口 |⑥---|
3
口口⑤口 |①-②-|
④口口口 |③-④⑤|
口口口口
②口③①

⑥口口⑩
口⑦⑪口
口⑫⑧口 |⑥⑦⑧⑨|
⑬口口⑨ |⑩⑪⑫⑬|
4
口③③口 |①-②-|
①⑥⑥② |③---|
④口口⑤ |④-⑤-|
口口口口 |⑥---|
5
⑩③③⑥ |①-②-|
口⑪⑦口 |③-④⑤|
④⑧⑫⑤ |⑥⑦⑧⑨|
⑨①②⑬ |⑩⑪⑫⑬|
6
口口口口 |①-②-|
⑥口口③ |③---|
⑥⑤④③ |④-⑤-|
口①②口 |⑥---|
7
口⑤口口 |①-②-|
④口口口 |③-④⑤|
口口口口
②③③①

⑥口口⑩
口⑦⑪口
口⑫⑧口 |⑥⑦⑧⑨|
⑬口口⑨ |⑩⑪⑫⑬|
8
口③③口 |①-②-|
①⑥⑥② |③---|
④口口⑤ |④-⑤-|
口口口口 |⑥---|
9
⑩③③⑥ |①-②-|
⑤⑪⑦口 |③-④⑤|
口⑧⑫④ |⑥⑦⑧⑨|
⑨①②⑬ |⑩⑪⑫⑬|
10
口①①口 |①---|
口口口口 |②---|
②②口口
口①①口

④④口口
口口③③
口口口口 |③---|
口口口口 |④---|
11
口口①① |①---|
口③②② |②---|
口④口口 |----|
口口口口 |③-④-|
12
口⑥口口 |①-②-|
口⑤③③ |③---|
口④②② |--④-|
①①口口 |⑤-⑥-|
13
口口①① |①---|
口④口口 |----|
口③②② |②---|
口口口口 |③-④-|
14
口口口口 |①---|
口口①① |②-③-|
口③②②
口口口口

⑤⑤⑦⑦
④口⑥⑥
口口口口 |④-⑤-|
口口口口 |⑥-⑦-|
15
口口口口 |①---|
口口口口 |----|
①①①①
口口口口

口口口口
口口口口
④③③④ |--②-|
②②②② |③-④-|
16
①①①① |①---|
②②②② |②---|
口③③口 |----|
口④④口 |③-④-|
17
口③③口 |①-②-|
②①①② |③---|
口口口口
口口口口

口口口口
口⑥口口
口口⑤口 |--④-|
口④口口 |⑤-⑥-|
18
口①①口 |①---|
④④口口 |--②-|
②②口③ |③---|
口口口口 |--④-|
19
口口口口 |①---|
口口口① |----|
口口①口
口①口口

②口口④
③口口④
④口口③ |--②-|
④口口② |③-④-|
20
口①①口 |①---|
口口口口 |②---|
口②②口
口口口口

口口口口
口③③口
口④④口 |----|
口口口口 |③-④-|
21
③⑥口③ |①-②-|
口⑤口口 |③---|
②④口② |--④-|
口①①口 |⑤-⑥-|
22
①口④① |①---|
口②③② |----|
口口口口 |②---|
②口②口 |③-④-|
23
口③口④ |①---|
口②⑤口 |②-③-|
①⑥①口 |④-⑤-|
⑦①口① |⑥-⑦-|
24
①口②口 |①---|
口①口② |----|
口②①口 |②---|
口口②① |----|
25
口①口口 |①---|
①口②口 |----|
口口①② |②---|
口①口② |----|
26
口口口口 |①---|
口①口③ |----|
①口③② |②---|
①③②口 |③---|
27
口②②① |①---|
②口①口 |②---|
②①口口
①口口口

③口口⑦
口④⑧口
口⑨⑤口 |③④⑤⑥|
⑩口口⑥ |⑦⑧⑨⑩|
28
口①②口 |①---|
口口口② |----|
①②口① |②---|
口①②口 |----|
29
口①口口 |①---|
①口②口 |----|
口口①② |②---|
口①口② |----|
30
口口口口 |①---|
口①口③ |----|
①口③② |②---|
①③②口 |③---|
31
口③②① |①---|
③②①口 |②-③-|
②①口口
①口口口

④口口⑤
口口口口
口口口口 |④---|
⑤口口④ |⑤---|
32
口口口口 |①---|
①①①① |----|
口口口口
口口口口

口口口④
口口⑤口
口③口口 |②-③-|
②口口口 |④-⑤-|
33
⑤口口⑥ |①---|
④口口④ |②-③-|
①②②① |④---|
⑥③③⑤ |⑤-⑥-|
34
口口口口 |①---|
口口口口 |----|
①①①①
口口口口

④口口口
口⑤口口
口口③口 |②-③-|
口口口② |④-⑤-|
35
⑥口口② |①---|
①⑦③① |----|
①④⑧① |②③④⑤|
⑤口口⑨ |⑥⑦⑧⑨|
36
口口④口 |①-②-|
①口④① |③-④-|
①③口①
口②口口

口口口口
口口口口
口⑥口口 |----|
口⑤口口 |--⑤⑥|
37
④③②① |①-②-|
⑤④③② |③-④-|
⑥⑤④③ |--⑤⑥|
⑦⑥⑤④ |⑦---|
38
①口口② |----|
口口口口 |①---|
口口口口 |②---|
②③③① |--③-|
39
口口口口 |①---|
①①①① |②---|
②②②② |----|
③④④③ |③-④-|
40
口③③口 |①-②-|
②①①② |③---|
口口口口
口口口口

口口口口
口⑥口口
口口⑤口 |--④-|
口④口口 |⑤-⑥-|
41
口①①口 |①---|
④④口口 |--②-|
②②口③ |③---|
口口口口 |--④-|
42
口口口口 |①---|
口口口① |----|
口口①口
口①口口

口③②口
口⑤④⑨
⑥⑦⑧口 |②③④⑤|
口口口口 |⑥⑦⑧⑨|
43
①口口① |①---|
口口口口 |----|
口口口口
口口口口

口⑤口⑤
②口②口
③②④② |②-③-|
口口口口 |④-⑤-|
44
口口口口 |①---|
口①口① |②---|
口②口②
②口②口

口口口⑦
④⑤⑥口
③口③口 |③---|
口③口③ |④⑤⑥⑦|
45
口①①口 |①---|
口④④口 |----|
口③③口 |②---|
口②②口 |③-④-|
46
①①①① |①---|
②③③② |②---|
②④④② |③---|
口口口口 |④---|
47
口口口口 |①---|
口③口口 |----|
口②口口 |----|
①①①① |②-③-|
48
①①①① |①---|
口口口口 |----|
口口口口
口口口口

口④④口
口③③口
口②②口 |--②-|
口口口口 |③-④-|
49
口②③口 |①---|
①⑥⑦① |----|
①④⑤① |②③④⑤|
口⑧⑨口 |⑥⑦⑧⑨|
50
①③⑤⑧ |①-②-|
②④⑥⑦ |③-④-|
①③⑤⑧ |⑤-⑥-|
口口口口 |⑦-⑧-|
51
口口口口 |①-②-|
①③⑤⑧ |③-④-|
②④⑥⑦ |⑤-⑥-|
①③⑤⑧ |⑦-⑧-|
52
①②①口 |①-②-|
③④③口 |③-④-|
⑤⑥⑤口 |⑤-⑥-|
⑧⑦⑧口 |⑦-⑧-|
53
口①②① |①-②-|
口③④③ |③-④-|
口⑤⑥⑤ |⑤-⑥-|
口⑧⑦⑧ |⑦-⑧-|
54
口口口口 |①---|
①①①① |--②-|
②口口口
口口口口

③③口口
口④口口
口口口口 |③-④-|
口口口口 |----|
55
口口口口 |①---|
①口口① |--②-|
②口口口
口口口口

口③口口
④③口口
口口口口 |③-④-|
口口口口 |----|
56
①②③⑥ |①---|
⑥④⑤① |②③④⑤|
①⑦⑧⑥ |⑥---|
⑥⑨⑩① |⑦⑧⑨⑩|
57
口口口口 |①-②-|
口①③④ |③-④-|
①口口口
③口口②

⑥口口⑦
口口口口
⑧⑤⑤⑧ |⑤⑥⑦-|
⑨⑩口口 |⑧-⑨⑩|
58
口①③口 |①---|
①口①③ |②---|
口③口口 |③---|
④口③② |④---|
59
口①口口 |①---|
①口口口 |②---|
口口①口
口①②口

口口口口
口口③口
口口口③ |③---|
口④口③ |④---|
60
口口口口 |①---|
口①口④ |②---|
①口④③ |③---|
①④③② |④---|
61
口②②① |①---|
②口①口 |②---|
②①口口
①口口口

③口口⑦
口④⑧口
口⑨⑤口 |③④⑤⑥|
⑩口口⑥ |⑦⑧⑨⑩|
62
口①口口 |①---|
②②口口 |②---|
①口口①
口①口口

口口③口
口口④③
口③口④ |③---|
口口③口 |④---|
63
口①口口 |①---|
①口口口 |②---|
②②①口
口①口口

口口口口
口口③④
口口④③ |③---|
口口口③ |④---|
64
口口口口 |①---|
②①口④ |②---|
①②④③ |③---|
①④③口 |④---|
65
口③②① |①---|
③②①口 |②-③-|
②①口口
①口口口

④口口⑤
口口口口
口口口口 |④---|
⑤口口④ |⑤---|
66
口口口口 |①---|
①①①① |----|
口①①口 |----|
口口口口 |----|


不確定度: 0

最終更新:2013年03月17日 02:10