ねこバス
新井 大樹

BASIC

Level: 3
BPM: 150
Notes: 199

1
口口口口 |----|
口口口口 |----|
口口口口 |----|
口口口口 |----|
2
口口口口 |①---|
①口口② |----|
口口口口 |②---|
口口口口 |----|
3
口口口口 |①---|
口口口口 |----|
口①①口 |----|
口口口口 |----|
4
口口口口 |①---|
口①②口 |----|
口口口口 |②---|
口口口口 |----|
5
口口口口 |①---|
口口口口 |----|
口①②口 |②---|
口口口口 |----|
6
口口口口 |①---|
口口口口 |----|
口口口口 |----|
口①①口 |----|
7
口口口口 |----|
口口口口 |----|
口口口口 |----|
口口口口 |----|
8
口口口口 |①---|
①口口② |----|
口口口口 |②---|
口口口口 |----|
9
口口口口 |①---|
口口口口 |----|
①口口② |②---|
口口口口 |----|
10
口口口口 |①---|
口口口口 |----|
口①①口 |----|
口口口口 |----|
11
口口口口 |----|
口口口口 |----|
口口口口 |----|
口口口口 |----|
12
口口口口 |①---|
口①②口 |----|
口口口口 |②---|
口口口口 |----|
13
口口口口 |①---|
口口口口 |----|
口①②口 |②---|
口口口口 |----|
14
口口口口 |①---|
口口口口 |----|
口口口口 |----|
口①①口 |----|
15
口口口口 |----|
口口口口 |----|
口口口口 |----|
口口口口 |----|
16
口口口口 |①---|
①口口② |----|
口口口口 |②---|
口口口口 |----|
17
口口口口 |①---|
口口口口 |----|
①口口② |②---|
口口口口 |----|
18
口口口口 |①---|
口口口口 |----|
口①①口 |----|
口口口口 |----|
19
口口口口 |----|
口口口口 |----|
口口口口 |----|
口口口口 |----|
20
①口②口 |①---|
口口口口 |----|
口口口口 |②---|
口口口口 |----|
21
口口口口 |①---|
口②口① |----|
口口口口 |②---|
口口口口 |----|
22
口口口口 |①---|
口口口口 |----|
①口②口 |②---|
口口口口 |----|
23
口口口口 |①---|
口口口口 |----|
口口口口 |②---|
口②口① |----|
24
口②口① |①---|
口口口口 |----|
口口口口 |②---|
口口口口 |----|
25
口口口口 |①---|
①口②口 |----|
口口口口 |②---|
口口口口 |----|
26
口口口口 |①---|
口口口口 |----|
口②口① |②---|
口口口口 |----|
27
口口口口 |①---|
口口口口 |----|
口口口口 |②---|
①口②口 |----|
28
口口口口 |①---|
①②口口 |②---|
③④口口 |③---|
口口口口 |④---|
29
口口口口 |①---|
口口①① |----|
口口口口 |----|
口口口口 |----|
30
口口口口 |①---|
①②口口 |②---|
③④口口 |③---|
口口口口 |④---|
31
口口口口 |①---|
口口①① |----|
口口口口 |----|
口口口口 |----|
32
口口口口 |①-②-|
①口口② |-③--|
③口口④ |④--⑤|
⑤口口⑥ |--⑥-|
33
口口口口 |-①--|
口①②口 |②--③|
口③④口 |--④-|
口⑤口口 |-⑤--|
34
口口口口 |①---|
口口口口 |----|
②口口② |②---|
口口①口 |----|
35
口口口口 |①---|
口②②口 |----|
口②②口 |----|
口①①口 |②---|
36
①②③口 |①---|
口口口口 |②---|
口口口口 |③---|
口口口口 |----|
37
口口口口 |①---|
①②③④ |②---|
口口口口 |③---|
口口口口 |④---|
38
口口口口 |①---|
口口口口 |----|
口①①口 |----|
口口口口 |----|
39
口口口口 |----|
口口口口 |----|
口口口口 |----|
口口口口 |----|
40
口口口口 |①---|
①②③④ |②---|
口口口口 |③---|
口口口口 |④---|
41
口口口口 |①---|
口口口口 |②---|
④③②① |③---|
口口口口 |④---|
42
口口口口 |①---|
①口口口 |----|
口口口口 |----|
口口口口 |----|
43
口口口口 |----|
口口口口 |----|
口口口口 |----|
口口口口 |----|
44
①②③口 |①---|
口口口口 |②---|
口口口口 |③---|
口口口口 |----|
45
口口口口 |①---|
①②③④ |②---|
口口口口 |③---|
口口口口 |④---|
46
口口口口 |①---|
口口口口 |----|
口①①口 |----|
口口口口 |----|
47
口口口口 |----|
口口口口 |----|
口口口口 |----|
口口口口 |----|
48
口口口口 |①---|
①②③④ |②---|
口口口口 |③---|
口口口口 |④---|
49
口口口口 |①---|
口口口口 |②---|
④③②① |③---|
口口口口 |④---|
50
口口口口 |①---|
①口口口 |----|
口口口口 |----|
口口口口 |----|
51
口口口口 |----|
口口口口 |----|
口口口口 |----|
口口口口 |----|
52
口口口口 |①---|
①②口口 |----|
口口口口 |②---|
口口口口 |----|
53
口口口口 |①---|
口口①① |----|
口口口口 |----|
口口口口 |----|
54
口口口口 |①---|
口口口口 |----|
①②口口 |②---|
口口口口 |----|
55
口口口口 |①---|
口口口口 |----|
口口①① |----|
口口口口 |----|
56
口口口口 |①-②-|
①口口② |-③--|
③口口④ |④--⑤|
⑤口口⑥ |--⑥-|
57
口口口口 |-①--|
口①②口 |②--③|
口③④口 |--④-|
口⑤口口 |-⑤--|
58
口口口口 |①---|
口口口口 |----|
口②②口 |②---|
口口①口 |----|
59
口口口口 |①---|
口②②口 |----|
口②②口 |----|
口①①口 |②---|
60
①②③④ |①---|
口口口口 |②---|
口口口口 |③---|
口口口口 |④---|
61
口口口口 |①---|
口③②① |②---|
口口口口 |③---|
口口口口 |----|
62
口口口口 |①---|
口口口口 |②---|
①②③④ |③---|
口口口⑤ |④-⑤-|
63
口口口口 |----|
口口口口 |----|
口口口口 |----|
口口口口 |----|
64
口①②口 |①---|
口④③口 |②---|
口口口口 |③---|
口口口口 |④---|
65
口口口口 |①---|
口口口口 |②-③-|
口①②③ |----|
口口口口 |----|
66
口①①口 |①---|
口②②口 |②---|
口③③口 |③---|
口④④口 |④---|
67
口口口口 |①---|
口①口口 |②---|
口②口口 |③---|
口③口口 |----|
68
口口口口 |①---|
口口①口 |②---|
口口②口 |③---|
口口③口 |----|
69
①口口口 |①---|
②口口口 |②---|
③口口口 |③---|
口口口口 |----|
70
口口口① |①---|
口口口② |②---|
口口口③ |③---|
口口口口 |----|
71
口口口④ |①---|
口口口③ |②---|
口口口② |③---|
口口口① |④---|
72
口口①口 |①---|
口口②口 |②---|
口口③口 |③---|
口口④口 |④---|
73
口④口口 |①---|
口③口口 |②---|
口②口口 |③---|
口①口口 |④---|
74
①口口口 |①---|
②口口口 |②---|
③口口口 |③---|
④口口口 |④---|
75
口口口口 |①---|
口①①口 |----|
口①①口 |----|
口口口口 |----|


不確定度: 0

最終更新:2013年03月17日 02:10