ねこバス
新井 大樹

ADVANCED

Level: 7
BPM: 150
Notes: 558

1
口口口口 |----|
口口口口 |----|
口口口口 |----|
口口口口 |----|
2
口口口口 |①---|
①口口① |----|
口口口口 |----|
口口口口 |----|
3
口口口口 |①---|
口①①口 |----|
口①①口 |----|
口口口口 |----|
4
口口口口 |①-②-|
①②④③ |③-④-|
口口口口
口口口口

口口口口
⑥口口口
口⑤⑤口 |⑤---|
口口口口 |--⑥-|
5
口口口口 |--①-|
口①③② |②-③-|
⑦⑤④⑥ |④-⑤-|
口口口口 |⑥-⑦-|
6
口口口口 |①-②-|
口②②口 |----|
口口口口 |----|
①口口① |----|
7
口口口口 |----|
口口口口 |----|
口口口口 |----|
口口口口 |----|
8
①口口② |①-②-|
③口口④ |③-④-|
口口口口
口口口口

⑦口口⑦
口口口口
口⑥⑥口 |⑤-⑥-|
⑤口口⑤ |--⑦-|
9
口③③口 |----|
②④④① |①-②-|
口口口口 |③-④-|
口⑤⑤口 |--⑤-|
10
口口口口 |----|
口口口口 |----|
口口口口 |----|
口口口口 |----|
11
口口口口 |----|
口口口口 |----|
口口口口 |----|
口口口口 |----|
12
口口口口 |①-②-|
①②④③ |③-④-|
口口口口
口口口口

口口口口
⑥口口口
口⑤⑤口 |⑤---|
口口口口 |--⑥-|
13
口口口口 |--①-|
口①③② |②-③-|
⑦⑤④⑥ |④-⑤-|
口口口口 |⑥-⑦-|
14
口口口口 |①-②-|
口②②口 |----|
口口口口 |----|
①口口① |----|
15
口口口口 |----|
口口口口 |----|
口口口口 |----|
口口口口 |----|
16
①口口② |①-②-|
③口口④ |③-④-|
口口口口
口口口口

⑦口口⑦
口口口口
口⑥⑥口 |⑤-⑥-|
⑤口口⑤ |--⑦-|
17
口③③口 |----|
②④④① |①-②-|
口口口口 |③-④-|
口⑤⑤口 |--⑤-|
18
口口口口 |----|
口口口口 |----|
口口口口 |----|
口口口口 |----|
19
口口口口 |----|
口口③③ |----|
①②口口 |--①-|
口口口口 |②-③-|
20
③①②④ |①-②-|
口口口口 |③-④-|
口⑤⑥⑦ |⑤⑥⑦-|
口⑧⑨⑩ |⑧⑨⑩-|
21
口口口口 |①-②-|
③①②④ |③-④-|
口⑤⑥⑦ |⑤⑥⑦-|
口⑧⑨⑩ |⑧⑨⑩-|
22
口口口④ |①-②-|
①②③口 |③-④-|
口⑤⑥⑦ |⑤⑥⑦-|
口⑧⑨⑩ |⑧⑨⑩-|
23
口口口④ |①-②-|
①②③口 |③-④-|
口⑤⑥⑦ |⑤⑥⑦-|
口⑧⑨⑩ |⑧⑨⑩-|
24
③①②④ |①-②-|
口口口口 |③-④-|
口⑤⑥⑦ |⑤⑥⑦-|
口⑧⑨⑩ |⑧⑨⑩-|
25
口口口口 |①-②-|
③①②④ |③-④-|
口⑤⑥⑦ |⑤⑥⑦-|
口⑧⑨⑩ |⑧⑨⑩-|
26
口口④④ |①-②-|
①②③口 |③-④-|
口⑤⑥⑦ |⑤⑥⑦-|
口⑧⑨⑩ |⑧⑨⑩-|
27
口口④④ |①-②-|
①②③口 |③-④-|
口⑤⑥⑦ |⑤⑥⑦-|
口⑧⑨⑩ |⑧⑨⑩-|
28
④⑧⑧③ |①-②-|
⑤①②⑥ |③-④-|
⑤⑦⑦⑥ |⑤-⑥-|
口口口口 |⑦-⑧-|
29
口口口口 |--①-|
口①①口 |②---|
口口口口 |----|
口②②口 |----|
30
口⑧⑧口 |①-②-|
⑤口口⑥ |③-④-|
⑤⑦⑦⑥ |⑤-⑥-|
①②④③ |⑦-⑧-|
31
口口口口 |--①-|
口①①口 |②---|
口口口口 |----|
口②②口 |----|
32
①①②口 |①-②-|
口③④口 |-③--|
⑤口口⑥ |④--⑤|
口口口口 |--⑥-|
33
口口口口 |-①--|
③口口④ |②--③|
口⑤⑤口 |--④-|
口①②口 |-⑤--|
34
①②③① |①---|
口④④口 |②-③-|
口⑤⑤口 |④-⑤-|
⑥⑥⑥⑥ |--⑥-|
35
口口口口 |----|
口口口口 |----|
口①①口 |----|
口①①口 |①---|
36
口口口口 |①-②-|
①②③口 |③-④-|
口口口④
口口口口

口口口口
⑥口口口
口⑤⑤口 |⑤---|
口口口口 |--⑥-|
37
口口口口 |--①-|
口口①口 |②-③-|
口⑥④② |④-⑤-|
⑦⑤③口 |⑥-⑦-|
38
口口口口 |①-②-|
②①①② |----|
口口口口 |----|
口口口口 |----|
39
口口口口 |①---|
口①①口 |----|
口①①口 |----|
口口口口 |----|
40
⑦①②⑦ |①-②-|
⑥①②⑥ |③-④-|
③③④④ |⑤-⑥-|
⑤口口⑤ |--⑦-|
41
口口口口 |----|
②①①② |①-②-|
口③③口 |③-④-|
⑤④④⑤ |--⑤-|
42
口口口口 |----|
口口口口 |----|
口口口口 |----|
口口口口 |----|
43
口口口口 |----|
口口口口 |----|
口口口口 |----|
口口口口 |----|
44
口口口口 |①-②-|
①②③口 |③-④-|
口口口口
口口口④

口口口口
⑥口口口
口⑤⑤口 |⑤---|
口口口口 |--⑥-|
45
口口口口 |--①-|
口口①口 |②-③-|
口⑥④② |④-⑤-|
⑦⑤③口 |⑥-⑦-|
46
口②②口 |①-②-|
口①①口 |----|
口口口口 |----|
口口口口 |----|
47
口口口口 |①---|
口①①口 |----|
口①①口 |----|
口口口口 |----|
48
⑦①②⑦ |①-②-|
⑥①②⑥ |③-④-|
③③④④ |⑤-⑥-|
⑤口口⑤ |--⑦-|
49
口口口口 |----|
②①①② |①-②-|
口③③口 |③-④-|
⑤④④⑤ |--⑤-|
50
口口口口 |----|
口口口口 |----|
口口口口 |----|
口口口口 |----|
51
口口口口 |----|
口口口口 |----|
口口口口 |----|
口口口口 |----|
52
④⑧⑧③ |①-②-|
⑤①②⑥ |③-④-|
⑤⑦⑦⑥ |⑤-⑥-|
口口口口 |⑦-⑧-|
53
口口口口 |--①-|
口①①口 |②---|
口口口口 |----|
口②②口 |----|
54
口⑧⑧口 |①-②-|
⑤口口⑥ |③-④-|
⑤⑦⑦⑥ |⑤-⑥-|
①②④③ |⑦-⑧-|
55
口口口口 |--①-|
口①①口 |②---|
口口口口 |----|
口②②口 |----|
56
①①②口 |①-②-|
口③④口 |-③--|
⑤口口⑥ |④--⑤|
口口口口 |--⑥-|
57
口口口口 |-①--|
③口口④ |②--③|
口⑤⑤口 |--④-|
口①②口 |-⑤--|
58
①②③① |①---|
口④④口 |②-③-|
口⑤⑤口 |④-⑤-|
⑥⑥⑥⑥ |--⑥-|
59
口口口口 |----|
口口口口 |----|
口①①口 |----|
口①①口 |①---|
60
①②②① |①-②-|
④③③④ |③-④-|
⑤⑥⑥⑤ |⑤---|
口⑦⑦口 |⑥-⑦-|
61
③①①③ |①-②-|
口②②口 |③-④-|
④口口④ |----|
口口口口 |----|
62
⑤⑥⑥⑤ |①-②-|
①②②① |③-④-|
⑦③③⑦ |⑤-⑥-|
⑧④④⑧ |⑦-⑧-|
63
口口口口 |----|
口口口口 |----|
口口口口 |----|
口口口口 |----|
64
①①①① |①---|
④口口④ |②-③-|
⑤②②⑤ |④---|
③⑥⑥③ |⑤-⑥-|
65
①口口① |①-②-|
口②②口 |③-④-|
口③③口
④口口④

⑤⑤口口
口口口口
口口口口 |----|
口口口口 |--⑤-|
66
口口①② |--①-|
⑤④③③ |②-③-|
⑥⑥⑥⑥ |④-⑤-|
口⑦⑦口 |⑥-⑦-|
67
①口②③ |①-②③|
口④⑤⑥ |④⑤⑥-|
⑦⑧口⑨ |⑦⑧-⑨|
⑩口口⑩ |⑩---|
68
①口②③ |①-②③|
④⑤⑥⑦ |④⑤⑥⑦|
⑧⑨⑩⑪ |⑧⑨⑩⑪|
⑫⑬⑭⑮ |⑫⑬⑭⑮|
69
①口②③ |①-②③|
口④⑤⑥ |④⑤⑥-|
⑦⑧口⑨ |⑦⑧-⑨|
⑩口口⑩ |⑩---|
70
①口②③ |①-②③|
④⑤⑥⑦ |④⑤⑥⑦|
⑧⑨⑩⑪ |⑧⑨⑩⑪|
⑫⑬⑭⑮ |⑫⑬⑭⑮|
71
①口②③ |①-②③|
口⑥⑤④ |④⑤⑥-|
⑦⑧口⑨ |⑦⑧-⑨|
⑩口口⑩ |⑩---|
72
③②口① |①-②③|
④⑤⑥⑦ |④⑤⑥⑦|
⑪⑩⑨⑧ |⑧⑨⑩⑪|
⑫⑬⑭⑮ |⑫⑬⑭⑮|
73
①口②③ |①-②③|
④⑤⑥口 |④⑤⑥-|
⑨口⑧⑦ |⑦⑧-⑨|
口⑪口⑩ |⑩-⑪-|
74
口口口口 |①-②③|
①口②③ |④⑤⑥-|
口⑥⑤④
口口口口

⑦⑧口⑨
⑩⑫⑪⑬
口口口口 |⑦⑧-⑨|
口口口口 |⑩⑪⑫⑬|
75
口口口口 |①---|
口口口口 |----|
①口口① |----|
①口口① |----|


不確定度: 0

最終更新:2013年03月17日 02:09