ねこバス
新井 大樹

EXTREME

Level: 10
BPM: 150
Notes: 1000

1
口口口口 |----|
口口口口 |----|
口口口口 |----|
口口口口 |----|
2
①口②口 |①-②-|
①③口④ |③-④-|
⑤口⑥⑥ |⑤-⑥-|
⑦口⑧⑧ |⑦-⑧-|
3
②⑥⑦② |①②--|
③①①③ |③-④⑤|
④⑧⑨⑤ |-⑥⑦-|
口⑩⑪口 |⑧⑨⑩⑪|
4
①口口① |①-②-|
④③②① |③-④-|
口口口口
口口口口

口口口口
口口口⑥
口⑤⑤口 |⑤---|
口口口⑥ |--⑥-|
5
口口口口 |--①-|
②①口口 |②-③-|
⑦⑤④⑥ |④-⑤-|
③口口口 |⑥-⑦-|
6
②①①② |①-②-|
②口口② |③-④-|
口口③口
④①①口

口口口口
口⑦口⑧
口⑤口口 |⑤-⑥-|
口口口⑥ |⑦-⑧-|
7
②①①② |①-②-|
⑥⑤⑤⑥ |③-④-|
④③③④ |⑤-⑥-|
⑧⑦⑦⑧ |⑦-⑧-|
8
⑦⑦⑦⑦ |①-②-|
口口⑥⑥ |③-④-|
③①②④ |⑤-⑥-|
口⑤⑤口 |--⑦-|
9
⑤口口⑤ |----|
⑤①②⑤ |①-②-|
①③④② |③-④-|
③口口④ |--⑤-|
10
口口口口 |①-②-|
口①②口 |③-④-|
口③④口
口口口口

口⑤⑥口
口⑦⑧口
⑤口口⑥ |⑤-⑥-|
⑦口口⑧ |⑦-⑧-|
11
口⑤⑥口 |①-②-|
①⑦⑧② |③-④-|
⑤③④⑥ |⑤-⑥-|
⑦口口⑧ |⑦-⑧-|
12
①口口① |①-②-|
①口口① |③-④-|
④③②口
口口口口

口口口口
⑥口口口
口口口口 |⑤---|
⑤⑤口口 |--⑥-|
13
口口口口 |--①-|
口①③② |②-③-|
⑦⑤④⑥ |④-⑤-|
口口口口 |⑥-⑦-|
14
②①①② |①-②-|
②口口② |③-④-|
口口③口
④①①口

口口口口
口⑦口⑧
口⑤口口 |⑤-⑥-|
口口口⑥ |⑦-⑧-|
15
②①①② |①-②-|
⑥⑤⑤⑥ |③-④-|
④③③④ |⑤-⑥-|
⑧⑦⑦⑧ |⑦-⑧-|
16
⑦⑦⑦⑦ |①-②-|
口口⑥⑥ |③-④-|
③①②④ |⑤-⑥-|
口⑤⑤口 |--⑦-|
17
⑤口口⑤ |----|
⑤①②⑤ |①-②-|
①③④② |③-④-|
③口口④ |--⑤-|
18
口口口口 |①-②-|
口①②口 |③-④-|
口③④口
口口口口

口⑤⑥口
口⑦⑧口
⑤口口⑥ |⑤-⑥-|
⑦口口⑧ |⑦-⑧-|
19
口口口⑤ |①②③-|
①口口口 |④⑤⑥-|
口④⑥口
口③②口

口⑦⑧口
口⑨⑪口
⑦口口⑧ |⑦-⑧-|
⑨⑩⑫⑪ |⑨⑩⑪⑫|
20
①口口① |①-②-|
①口口② |③-④-|
③①口④
口口口口

口口口口
⑧⑨⑩口
口口口口 |⑤⑥⑦-|
⑤⑥⑦口 |⑧⑨⑩-|
21
①②③④ |①-②-|
口口口口 |③-④-|
①口口口
口口口口

口口口口
⑤⑥⑦口
⑧⑨⑩口 |⑤⑥⑦-|
口口口口 |⑧⑨⑩-|
22
①②③④ |①-②-|
口口口口 |③-④-|
口口口①
口口口口

口口口口
口⑤⑧口
⑦⑥⑨⑩ |⑤⑥⑦-|
口口口口 |⑧⑨⑩-|
23
口口口口 |①-②-|
①口口口 |③-④-|
口口口口
①②③④

口口口口
⑧⑨⑩口
⑤⑥⑦口 |⑤⑥⑦-|
口口口口 |⑧⑨⑩-|
24
①③④② |①-②-|
口口口口 |③-④-|
口口口口
①口口口

口口口口
口⑤⑧口
口⑨⑥口 |⑤⑥⑦-|
⑩口口⑦ |⑧⑨⑩-|
25
①口口② |①-②-|
③⑤⑧④ |③-④-|
口⑨⑥① |⑤⑥⑦-|
⑩口口⑦ |⑧⑨⑩-|
26
①口口口 |①-②-|
①口口② |③-④-|
③口口④
口口口口

⑩口口⑦
口⑨⑥口
口⑤⑧口 |⑤⑥⑦-|
口口口口 |⑧⑨⑩-|
27
口口口口 |①-②-|
口口口口 |③-④-|
①口口②
①③④②

口⑦口⑥
口⑤⑩口
⑨口⑧口 |⑤⑥⑦-|
口口口口 |⑧⑨⑩-|
28
①口口⑤ |①-②-|
口口⑥⑤ |③-④-|
口口⑦⑧ |⑤-⑥-|
①②④③ |⑦-⑧-|
29
口口口口 |--①-|
⑤⑤③④ |②-③-|
④①⑤⑤ |--④-|
②②①口 |⑤---|
30
口口口⑤ |①-②-|
口口⑥⑤ |③-④-|
口口⑦⑧ |⑤-⑥-|
①②④③ |⑦-⑧-|
31
口口口口 |--①-|
口口③口 |②-③-|
口①口口
②②①口

口口口口
④口口⑤
⑤⑥⑥④ |-④--|
口口口口 |⑤--⑥|
32
①口②③ |①-②-|
⑥③口④ |-③--|
⑤口口⑤ |④--⑤|
④②①⑥ |--⑥-|
33
①②③④ |-①--|
⑤口口⑤ |②--③|
④口口口 |--④-|
③②①口 |-⑤--|
34
①②③④ |①---|
⑤口①口 |②-③-|
④⑥⑥① |④-⑤-|
口③⑤② |--⑥-|
35
口②③④ |①②③④|
口①口⑤ |⑤⑥⑦⑧|
口口口⑥
口口⑧⑦

⑬口口口
⑫⑬口口
⑪口口口 |⑨⑩⑪⑫|
⑩⑨口口 |⑬---|
36
口②口口 |①-②③|
口口口③ |④⑤⑥-|
口①①①
④⑤⑥口

口口⑧⑦
口⑨⑩口
口⑨⑩口 |⑦⑧-⑨|
口口口口 |⑩---|
37
口⑥口口 |①-②③|
口口口口 |④⑤⑥-|
①口口①
④②③⑤

口口口口
⑨⑦⑧⑩
⑨口口⑩ |⑦⑧-⑨|
口⑪⑪口 |⑩-⑪-|
38
②④⑤③ |①-②③|
⑩⑥⑦⑪ |④⑤⑥⑦|
⑩⑧⑨⑪ |⑧⑨-⑩|
①口口① |⑪---|
39
②①①③ |①-②③|
口④⑤口 |④⑤⑥⑦|
口⑥⑦口
口①①口

口口口口
⑧口口⑧
口口口口 |-⑧--|
⑩⑨⑨⑩ |⑨-⑩-|
40
①①②② |①-②-|
③③①④ |③-④-|
④②③④
口口口口

⑦⑦⑦⑦
口口口口
口口口口 |⑤-⑥-|
⑥⑤⑤⑥ |--⑦-|
41
⑤⑤⑤⑤ |----|
①①②② |①-②-|
口②①口 |③-④-|
③④④③ |--⑤-|
42
⑩口口⑩ |①-②③|
①⑨②③ |④⑤⑥-|
⑦⑧⑧⑦ |⑦⑧-⑨|
④⑤⑥口 |⑩---|
43
口②③口 |①-②③|
①口口① |④⑤⑥-|
⑥口口⑥
口④⑤口

⑨⑪⑪⑨
口⑧⑧口
口⑩⑩口 |⑦⑧-⑨|
⑦口口⑦ |⑩-⑪-|
44
⑧⑨⑩⑧ |①-②③|
①⑦⑦① |④⑤⑥-|
②⑨⑩③ |⑦⑧-⑨|
④⑤⑥口 |⑩---|
45
口⑥⑦口 |①-②③|
①口口① |④⑤⑥⑦|
口口口口
④②③⑤

口口口口
⑪⑧⑨⑪
⑪⑩⑩⑪ |⑧⑨-⑩|
口⑫⑫口 |⑪-⑫-|
46
②④⑤③ |①-②③|
⑪⑥⑦⑪ |④⑤⑥⑦|
⑪⑧⑨⑪ |⑧⑨-⑩|
①⑩⑩① |⑪---|
47
②①①③ |①-②③|
⑧④⑤⑧ |④⑤⑥⑦|
口⑥⑦口 |-⑧--|
⑩⑨⑨⑩ |⑨-⑩-|
48
①②①② |①-②-|
③④③④ |③-④-|
④②③①
口口口口

⑦⑦⑦⑦
口口口口
口口口口 |⑤-⑥-|
⑥⑤⑤⑥ |--⑦-|
49
⑤⑤⑤⑤ |----|
①①②② |①-②-|
①②①② |③-④-|
③④④③ |--⑤-|
50
⑩口口⑩ |①-②③|
①⑨②③ |④⑤⑥-|
⑦⑤⑧⑧ |⑦⑧-⑨|
④口⑥⑥ |⑩---|
51
口②③口 |①-②③|
①口口① |④⑤⑥-|
口④⑤口
口⑥⑥口

⑦口口⑦
⑨⑧⑧⑨
⑩口口⑩ |⑦⑧--|
口口口口 |⑨-⑩-|
52
口口①口 |①-②-|
口口口口 |③-④-|
口①①口
①②④③

口口口⑤
口口⑥⑤
口口⑦⑧ |⑤-⑥-|
口口口口 |⑦-⑧-|
53
口口口口 |--①-|
④④③口 |②---|
②①④④ |③---|
②②①口 |④---|
54
口口口⑤ |①-②-|
口口⑥⑤ |③-④-|
口口⑦⑧ |⑤-⑥-|
①②④③ |⑦-⑧-|
55
⑤口口口 |--①-|
⑤口④口 |②---|
⑤①③④ |③④--|
②②①口 |⑤---|
56
口①①② |①-②-|
口②③② |-③--|
口①口③
口口口③

⑥口口口
⑥⑥口口
⑤⑤④口 |④--⑤|
⑤④④口 |--⑥-|
57
口①①② |-①--|
口口①② |②--③|
口③②③
口口口③

口口口口
口④⑤口
⑤口口口 |--④-|
⑤④④口 |-⑤--|
58
①②口② |①---|
①口口口 |②-③-|
口口①③
口③口②

口口④口
口④⑥④
口⑥⑥口 |④-⑤-|
口口⑤口 |--⑥-|
59
③④⑤⑥ |①②③④|
②口口⑦ |⑤⑥⑦⑧|
①口口⑧
口口口口

口口口口
⑬⑬口口
⑬⑬口口 |⑨⑩⑪⑫|
⑫⑪⑩⑨ |⑬---|
60
②口口① |①-②-|
口口①口 |③-④-|
口口③口
④口口③

口⑤⑤口
口⑦⑥口
⑦口口⑥ |⑤---|
口⑤⑤口 |⑥-⑦-|
61
①⑧⑦① |①-②-|
②口口② |③-④-|
⑦③③⑥ |⑤⑥--|
⑤④④⑧ |⑦-⑧-|
62
③口口④ |①-②-|
①口③② |③-④-|
口④①口
口②口口

口口⑤口
⑧⑥口口
⑦口口⑥ |⑤-⑥-|
⑤口⑦⑧ |⑦-⑧-|
63
口口口⑦ |①-②③|
口⑥①③ |④⑤⑥⑦|
口②⑤口
④口口口

⑧口⑬口
口口⑪⑮
⑩⑭口⑨ |⑧⑨⑩⑪|
口⑫口口 |⑫⑬⑭⑮|
64
口①口② |①---|
①②口口 |②-③-|
口口①口
③口③①

④口口口
⑤口⑤口
④⑥口④ |④---|
口④口⑥ |⑤-⑥-|
65
口①①口 |①-②-|
口②口口 |③-④-|
③口②③
口④④口

⑤⑨⑨⑥
⑦⑩⑩⑧
口口口口 |⑤⑥⑦⑧|
口口口口 |⑨-⑩-|
66
口口口⑦ |①-②③|
口口口⑥ |④⑤⑥⑦|
口①①⑤
口②③④

⑩⑨⑧口
⑪口口口
口⑫⑫口 |⑧⑨⑩⑪|
口口口口 |⑫---|
67
口口⑥口 |①-②③|
口①①口 |④⑤⑥-|
②口口⑤
①③④①

⑦⑧口⑨
⑩⑩⑩⑩
口口口口 |⑦⑧-⑨|
口口口口 |⑩---|
68
④⑤⑥⑦ |①-②③|
口口口口 |④⑤⑥⑦|
③②口①
口口口①

口口口口
⑧⑨⑩⑪
口口口口 |⑧⑨⑩⑪|
⑫⑬⑭⑮ |⑫⑬⑭⑮|
69
①⑥⑤④ |①-②③|
⑨口⑧⑦ |④⑤⑥-|
①口③② |⑦⑧-⑨|
⑩⑩⑩⑩ |⑩---|
70
口④⑤① |①-②③|
口⑥⑦口 |④⑤⑥⑦|
口①③②
口口口口

⑧口口⑮
⑨口口⑭
⑩口口⑬ |⑧⑨⑩⑪|
⑪口口⑫ |⑫⑬⑭⑮|
71
⑨①⑤⑪ |①②③④|
⑬⑥③⑭ |⑤⑥⑦⑧|
⑩②⑦⑫ |⑨⑩⑪⑫|
⑮⑧④⑯ |⑬⑭⑮⑯|
72
⑤①③⑥ |①②③④|
口①③口 |⑤⑥⑦⑧|
⑦④②⑧
口④②口

口⑬⑭口
⑨口口⑩
口⑮⑯口 |⑨⑩⑪⑫|
⑪口口⑫ |⑬⑭⑮⑯|
73
口口口① |①-②③|
④①①⑤ |④⑤⑥-|
②口口②
⑥③③⑥

⑦口口⑩
口⑨⑩口
口⑧⑨⑩ |⑦⑧--|
口口口口 |⑨-⑩-|
74
③②①口 |①-②③|
④口口① |④⑤⑥⑦|
⑤口口口
⑥⑦口口

口⑭⑬⑫
口⑮⑪⑪
口口⑩⑩ |⑧⑨⑩⑪|
口口⑧⑨ |⑫⑬⑭⑮|
75
①口口口 |①---|
①口口口 |----|
①①口口 |----|
口口口口 |----|


不確定度: 0

最終更新:2013年03月17日 02:09