風の通り道 feat.佐野隆
新井 大樹

BASIC

Level: 3
BPM: 135
Notes: 211

1
口口口口 |----|
口口口口 |----|
口口口口 |----|
口口口口 |----|
2
口口口口 |----|
口口口口 |----|
口口口口 |----|
口口口口 |----|
3
口口口口 |①---|
口口口口 |----|
口口口口 |----|
①口口① |----|
4
口口口口 |①---|
口口口口 |----|
①口口① |----|
口口口口 |----|
5
口口口口 |①---|
①口口① |----|
口口口口 |----|
口口口口 |----|
6
①口口① |①---|
口口口口 |----|
口口口口 |----|
口口口口 |----|
7
口①①口 |①---|
口口口口 |----|
口口口口 |----|
口口口口 |----|
8
口口口口 |①---|
口①①口 |----|
口口口口 |----|
口口口口 |----|
9
口口口口 |①---|
口口口口 |----|
口①①口 |----|
口口口口 |----|
10
口口口口 |①---|
口口口口 |----|
口口口口 |----|
口①①口 |----|
11
口口口口 |①---|
口口口口 |②---|
口口口口 |③---|
①②③④ |④---|
12
口口口口 |①---|
口口口口 |②---|
④③②① |③---|
口口口口 |④---|
13
口口口口 |①---|
①②③④ |②---|
口口口口 |③---|
口口口口 |④---|
14
④③②① |①---|
口口口口 |②---|
口口口口 |③---|
口口口口 |④---|
15
口口口口 |①---|
①②③④ |②---|
口口口口 |③---|
口口口口 |④---|
16
口口口口 |①---|
口口口口 |②---|
④③②① |③---|
口口口口 |④---|
17
口口口口 |①---|
口口口口 |②---|
口口口口 |③---|
①②③④ |④---|
18
口口口口 |①---|
口口口口 |②---|
④③②① |③---|
口口口口 |④---|
19
口口口口 |①---|
口①①② |----|
口口口③ |②---|
口口口口 |③---|
20
口口口口 |①---|
口口口口 |----|
口口口口 |②---|
口③②① |③---|
21
口口口口 |①---|
③口口口 |----|
②口口口 |②---|
①口口口 |③---|
22
①②③口 |①---|
口口口口 |----|
口口口口 |②---|
口口口口 |③---|
23
口口口口 |①---|
口①②口 |②---|
口③④口 |③---|
口口口口 |④---|
24
口口口口 |①---|
口口口口 |②---|
口③④口 |③---|
口①②口 |④---|
25
口口口口 |①---|
②①口口 |----|
③口口口 |②---|
口口口口 |③---|
26
口口口口 |①---|
口口口口 |----|
口口口口 |②---|
①②③口 |③---|
27
口口口口 |①---|
口口口③ |----|
口口口② |②---|
口口口① |③---|
28
口③②① |①---|
口口口口 |----|
口口口口 |②---|
口口口口 |③---|
29
①口口口 |①---|
②口口口 |----|
③口口口 |②---|
口口口口 |③---|
30
口口口口 |①---|
口口口口 |----|
口口口口 |②---|
①②③口 |③---|
31
口口口口 |①---|
口③④口 |②---|
口①②口 |③---|
口口口口 |④---|
32
口①②口 |①---|
口③④口 |②---|
口口口口 |③---|
口口口口 |④---|
33
口口口口 |①---|
口口口口 |----|
口①①口 |----|
口口口口 |----|
34
口口口口 |----|
②口口② |----|
①口口① |①---|
口口口口 |②---|
35
①②口① |①---|
口③口口 |----|
口口口口 |②---|
口口口口 |③---|
36
口口口口 |①---|
③口口③ |----|
②①口② |②---|
口口口口 |③---|
37
①口②① |①---|
口口③口 |----|
口口口口 |②---|
口口口口 |③---|
38
口口口口 |①---|
口口口口 |----|
口口①口 |②---|
②口口③ |③---|
39
口口口口 |①---|
③口口④ |②---|
①口口② |③---|
口口口口 |④---|
40
①口口② |①---|
③口口④ |②---|
口口口口 |③---|
口口口口 |④---|
41
口口口口 |①---|
口口口口 |----|
①②③① |②---|
口口口口 |③---|
42
口口口口 |①---|
口③③口 |----|
口②②① |②---|
口口口口 |③---|
43
②①①口 |①---|
③口口口 |----|
口口口口 |②---|
口口口口 |③---|
44
口口口口 |①---|
口③③口 |----|
①②②口 |②---|
口口口口 |③---|
45
口①①② |①---|
口口口③ |----|
口口口口 |②---|
口口口口 |③---|
46
口口口口 |①---|
口口口口 |----|
口②③① |②---|
口口口口 |③---|
47
口③④口 |①---|
口①②口 |②---|
口口口口 |③---|
口口口口 |④---|
48
口口口口 |①---|
口①②口 |②---|
口③④口 |③---|
口口口口 |④---|
49
口口口口 |①---|
口口口口 |----|
口口口口 |----|
口①①口 |----|
50
口口口口 |①---|
口口口口 |----|
口①①口 |----|
口口口口 |----|
51
口口口口 |①---|
口①①口 |----|
口口口口 |----|
口口口口 |----|
52
口①①口 |①---|
口口口口 |----|
口口口口 |----|
口口口口 |----|
53
口口口① |①---|
口口口② |②---|
口口口③ |③---|
口口口④ |④---|
54
口口口口 |①---|
口口口口 |②---|
④口口口 |③---|
③②①口 |④---|
55
②③④口 |①---|
①口口口 |②---|
口口口口 |③---|
口口口口 |④---|
56
口口口① |①---|
③口口③ |----|
②口口② |②---|
口口口口 |③---|
57
①口口① |①---|
口口口口 |----|
口口口口 |----|
口口口口 |----|
58
口口口口 |----|
口②②口 |----|
口①①口 |①---|
口口口口 |②---|
59
口①①口 |①---|
口口口口 |----|
口口口口 |----|
口口口口 |----|
60
口口口口 |----|
②②口口 |----|
①①口口 |①---|
口口口口 |②---|
61
①①口口 |①---|
口口口口 |----|
口口口口 |----|
口口口口 |----|
62
口口口口 |----|
口口②② |----|
口口①① |①---|
口口口口 |②---|
63
口口①① |①---|
口口口口 |----|
口口口口 |----|
口口口口 |----|
64
口口口口 |----|
②②②② |----|
①①①① |①---|
口口口口 |②---|


不確定度: 0

最終更新:2013年03月17日 02:09