風の通り道 feat.佐野隆
新井 大樹

ADVANCED

Level: 6
BPM: 135
Notes: 508

1
口口口口 |----|
口口口口 |----|
口口口口 |----|
口口口口 |----|
2
口口口口 |----|
口口口口 |----|
口口口口 |----|
口口口口 |----|
3
①口口口 |①-②-|
②⑤⑤口 |③-④-|
③⑥⑥口 |⑤---|
④口口口 |⑥---|
4
口口口① |①-②-|
口⑤⑤② |③-④-|
口⑥⑥③ |⑤---|
口口口④ |⑥---|
5
①口口口 |①-②-|
②⑤⑤口 |③-④-|
③⑥⑥口 |⑤---|
④口口口 |⑥---|
6
口口口① |①-②-|
口⑤⑤② |③-④-|
口⑥⑥③ |⑤---|
口口口④ |⑥---|
7
①②③④ |①-②-|
⑤口口⑤ |③-④-|
⑥口口⑥ |⑤---|
口口口口 |⑥---|
8
口口口口 |①-②-|
⑤口口⑤ |③-④-|
⑥口口⑥ |⑤---|
①②③④ |⑥---|
9
④③②① |①-②-|
⑤口口⑤ |③-④-|
⑥口口⑥ |⑤---|
口口口口 |⑥---|
10
口口口口 |①-②-|
⑤口口⑤ |③-④-|
⑥口口⑥ |⑤---|
④③②① |⑥---|
11
②口③口 |①-②③|
口④口口 |④-⑤⑥|
⑤①⑥口
口口口口

口⑦口口
⑩口口⑧
口⑨口⑪ |⑦⑧⑨-|
⑫口口口 |⑩⑪⑫-|
12
③④口⑤ |①-②-|
口①②口 |③-④⑤|
⑥口口⑦ |-⑥--|
口口口口 |⑦---|
13
⑦②口③ |①-②③|
⑩口④⑧ |④-⑤⑥|
⑨⑤口⑥ |⑦⑧⑨-|
⑫口①⑪ |⑩⑪⑫-|
14
口口口口 |①-②-|
口①②口 |③-④⑤|
③④口⑤ |-⑥--|
⑥口口⑦ |⑦---|
15
②口口口 |①-②③|
⑤③①口 |④-⑤⑥|
④⑥口口
口口口口

口⑦口⑧
口口⑨口
口口⑪口 |⑦⑧⑨-|
⑩⑫口口 |⑩⑪⑫-|
16
①②口口 |①-②-|
③④口⑤ |③-④⑤|
⑦口口口 |-⑥--|
口口口⑥ |⑦---|
17
口口②口 |①-②③|
口①⑤③ |④-⑤⑥|
口口④⑥
口口口口

⑦口口⑧
口⑨口口
⑩口口口 |⑦⑧⑨-|
⑫口口⑪ |⑩⑪⑫-|
18
口①②口 |①-②-|
口③口口 |③---|
口⑤⑤口 |④---|
④口口④ |⑤---|
19
③口口③ |①---|
①②②① |----|
口口口口 |②---|
口口口口 |③---|
20
口口口口 |①---|
口口口口 |----|
①③③① |②---|
②口口② |③---|
21
③口口③ |①---|
①②②① |----|
口口口口 |②---|
口口口口 |③---|
22
口口口口 |①---|
①口口① |----|
口口口口 |②---|
口②③口 |③---|
23
④口口④ |①---|
③口口③ |②---|
②口口② |③---|
①口口① |④---|
24
口①①口 |①---|
口②②口 |②---|
口③③口 |③---|
口④④口 |④---|
25
口口口口 |①---|
②①①② |----|
口口口口 |②---|
③口口③ |③---|
26
口口口口 |①---|
口口口口 |----|
①③③① |②---|
②口口② |③---|
27
③口口③ |①---|
①②②① |----|
口口口口 |②---|
口口口口 |③---|
28
口口口口 |①---|
口口口口 |----|
①③③① |②---|
②口口② |③---|
29
③口口③ |①---|
①②②① |----|
口口口口 |②---|
口口口口 |③---|
30
口口口口 |①---|
①②③① |----|
口口口口 |②---|
口口口口 |③---|
31
口口口口 |①---|
口④③口 |②---|
③②①④ |③---|
①口口② |④---|
32
口②①口 |①---|
①④③② |②---|
③口口④ |③---|
口口口口 |④---|
33
口口口口 |①---|
口口口口 |----|
口①①口 |----|
口口口口 |----|
34
①口口口 |--①-|
口②口口 |②-③-|
⑤⑤③口 |④---|
④口口④ |⑤---|
35
②口口口 |①-②-|
③口①① |③-④-|
④口口口
口口口口

口口⑥⑥
口口⑦⑦
口口口口 |⑤---|
⑤口口口 |⑥-⑦-|
36
①②口口 |①-②-|
口③口口 |③-④-|
口④⑥⑥ |⑤---|
口⑤⑦⑦ |⑥-⑦-|
37
⑥⑥①② |①-②-|
⑦⑦口③ |③-④-|
口口口④ |⑤---|
口口口⑤ |⑥-⑦-|
38
口口②① |①-②-|
口口③口 |③-④-|
⑥⑥④口 |⑤---|
⑦⑦⑤口 |⑥-⑦-|
39
②口口口 |①-②-|
口③口① |③-④-|
⑥口④口 |⑤---|
口⑦口⑤ |⑥-⑦-|
40
口口口② |①-②-|
①口③口 |③-④-|
口④口⑥ |⑤---|
⑤口⑦口 |⑥-⑦-|
41
②①②口 |①-②-|
口③口③ |③-④-|
④口④口
口口口口

⑥口口口
口⑦口口
口口口口 |⑤---|
口⑤口⑤ |⑥-⑦-|
42
口②①② |①-②-|
③口③⑥ |③-④-|
口④⑦④ |⑤---|
⑤口⑤口 |⑥-⑦-|
43
口②③口 |①---|
②①①③ |----|
口口口口 |②---|
口口口口 |③---|
44
口口口口 |①---|
口口口口 |----|
③①①③ |②---|
②口口② |③---|
45
口口口口 |①---|
①口口① |----|
②口口③ |②---|
口②③口 |③---|
46
口口口② |①---|
口口口③ |----|
③①①口 |②---|
②口口口 |③---|
47
②③口口 |①---|
①④口口 |②---|
口口④① |③---|
口口③② |④---|
48
口口②③ |①---|
口口①④ |②---|
④①口口 |③---|
③②口口 |④---|
49
②②口口 |①---|
①①①口 |----|
口①①① |②---|
口口口口 |----|
50
口口口口 |①---|
①口口① |----|
①口口① |②---|
口口②② |----|
51
口①①口 |①---|
③口口④ |②---|
③口口④ |③---|
口②②口 |④---|
52
①口口① |①---|
口③④口 |②---|
口③④口 |③---|
②口口② |④---|
53
④口口① |①-②③|
⑩口口⑦ |④-⑤⑥|
⑪②⑤⑧ |⑦⑧⑨-|
③⑫⑨⑥ |⑩⑪⑫-|
54
①口口口 |①-②-|
口口②口 |③-④⑤|
⑦⑦③④ |-⑥--|
⑥⑥口⑤ |⑦---|
55
①口口④ |①-②③|
⑦口口⑩ |④-⑤⑥|
⑧⑤②⑪ |⑦⑧⑨-|
⑥⑨⑫③ |⑩⑪⑫-|
56
口口口① |①-②-|
口②口口 |③-④⑤|
④③口口
⑤口口口

口口口口
口⑦⑦口
口口口口 |⑥---|
口⑥⑥口 |⑦---|
57
②①①口 |①-②-|
③口口口 |③-④-|
④口口口 |⑤-⑥-|
⑤⑥⑦⑧ |⑦-⑧-|
58
口⑤④③ |①-②-|
口⑥⑥② |③-④-|
口⑦⑦① |⑤-⑥-|
口⑧⑧口 |⑦-⑧-|
59
①口口① |--①-|
口口口口 |②-③-|
②口口②
③口口③

⑤口口⑤
④口口④
⑥口口⑥ |④---|
口口口口 |⑤-⑥-|
60
口①①口 |--①-|
口口口口 |②-③-|
口②②口
口③③口

口⑤⑤口
口④④口
口⑥⑥口 |④---|
口口口口 |⑤-⑥-|
61
口口口① |--①-|
口口口② |②-③-|
口口口③ |④-⑤-|
⑦⑥⑤④ |⑥-⑦-|
62
③④⑤口 |①-②-|
②⑥⑥口 |③-④-|
①⑦⑦口 |⑤-⑥-|
口⑧⑧口 |⑦-⑧-|
63
①口口④ |--①-|
②⑤⑤③ |②-③-|
③⑥⑥② |④---|
④口口① |⑤-⑥-|
64
④口口① |--①-|
③⑤⑤② |②-③-|
②⑥⑥③ |④---|
①口口④ |⑤-⑥-|


不確定度: 0

最終更新:2013年03月17日 02:08