風の通り道 feat.佐野隆
新井 大樹

EXTREME

Level: 7
BPM: 135
Notes: 595

1
口口口口 |----|
口口口口 |----|
口口口口 |----|
口口口口 |----|
2
口口口口 |----|
口口口口 |----|
口口口口 |----|
口口口口 |----|
3
①②③④ |①-②-|
口口口口 |③-④-|
⑥⑤⑤⑦ |⑤---|
口口口口 |⑥-⑦-|
4
口口口口 |①-②-|
①②③④ |③-④-|
口口口口 |⑤---|
⑥⑤⑤⑦ |⑥-⑦-|
5
④③②① |①-②-|
口口口口 |③-④-|
⑦⑤⑤⑥ |⑤---|
口口口口 |⑥-⑦-|
6
口口口口 |①-②-|
④③②① |③-④-|
口口口口 |⑤---|
⑦⑤⑤⑥ |⑥-⑦-|
7
①②③④ |①-②-|
口口口口 |③-④-|
⑥⑤⑤⑦ |⑤---|
口口口口 |⑥-⑦-|
8
口口口口 |①-②-|
①②③④ |③-④-|
口口口口 |⑤---|
⑥⑤⑤⑦ |⑥-⑦-|
9
④③②① |①-②-|
口口口口 |③-④-|
⑦⑤⑤⑥ |⑤---|
口口口口 |⑥-⑦-|
10
口口口口 |①-②-|
④③②① |③-④-|
口口口口 |⑤---|
⑦⑤⑤⑥ |⑥-⑦-|
11
①②口③ |①-②③|
④⑤口⑥ |④-⑤⑥|
⑦⑧⑨口 |⑦⑧⑨-|
口⑩⑪⑫ |⑩⑪⑫-|
12
①口口② |①-②-|
口③③口 |③-④⑤|
④⑦⑦⑤ |-⑥--|
口⑥⑥口 |⑦---|
13
③口②① |①-②③|
⑥口⑤④ |④-⑤⑥|
口⑨⑧⑦ |⑦⑧⑨-|
⑫⑪⑩口 |⑩⑪⑫-|
14
②口口① |①-②-|
口③③口 |③-④⑤|
⑤⑦⑦④ |-⑥--|
口⑥⑥口 |⑦---|
15
①②口③ |①-②③|
④⑤口⑥ |④-⑤⑥|
⑦⑧⑨口 |⑦⑧⑨-|
口⑩⑪⑫ |⑩⑪⑫-|
16
①口口② |①-②-|
口③③口 |③-④⑤|
④⑦⑦⑤ |-⑥--|
口⑥⑥口 |⑦---|
17
③口②① |①-②③|
⑥口⑤④ |④-⑤⑥|
口⑨⑧⑦ |⑦⑧⑨-|
⑫⑪⑩口 |⑩⑪⑫-|
18
②口口① |①-②-|
口③③口 |③-④-|
⑥④④⑥ |⑤---|
口⑤⑤口 |⑥---|
19
③口口③ |①---|
①②②① |----|
口口口口 |②---|
口口口口 |③---|
20
口口口口 |①---|
口口口口 |----|
③①①③ |②---|
口②②口 |③---|
21
③口口③ |①---|
①②②① |----|
口口口口 |②---|
口口口口 |③---|
22
口口口口 |①---|
①②③① |----|
口③②口 |②---|
口口口口 |③---|
23
口口④④ |①---|
③③口口 |②---|
口口②② |③---|
①①口口 |④---|
24
①①口口 |①---|
口口②② |②---|
③③口口 |③---|
口口④④ |④---|
25
③口口口 |①---|
①②口① |----|
口口②口 |②---|
口口口③ |③---|
26
口口口① |①---|
口③口③ |----|
②口②口 |②---|
①口口口 |③---|
27
①④①④ |①---|
③口③口 |②---|
口②口口 |③---|
口口口口 |④---|
28
口口口口 |①---|
口口②口 |②---|
口①口①
口口口口

口口口口
口口口口
④口口④ |③---|
口③③口 |④---|
29
口口口口 |①---|
①口口① |②---|
口②②口
口口口口

口口口口
④口口④
③口口③ |③---|
口口口口 |④---|
30
①④④① |①---|
口②②口 |②---|
口口口口 |③---|
口③③口 |④---|
31
②③④口 |①---|
①①口口 |②---|
口口①① |③---|
口④③② |④---|
32
④口口① |①---|
③口①② |②---|
②①口③ |③---|
①口口④ |④---|
33
口②③口 |①-②-|
口①①口 |-③--|
口①①口 |④--⑤|
口④⑤⑥ |--⑥-|
34
①口口① |--①-|
②⑤⑤② |②-③-|
③口口③ |④---|
④口口④ |⑤---|
35
①口口① |①-②-|
口口口口 |③-④-|
②口口③
口④口口

⑥口口⑥
口口⑦口
口口口口 |⑤---|
⑤口口⑤ |⑥-⑦-|
36
口②口口 |①-②-|
④⑥⑥③ |③-④-|
口①①口 |⑤---|
⑤口⑦⑤ |⑥-⑦-|
37
①口口① |①-②-|
口口口口 |③-④-|
②口口③
口④口口

⑥口口⑥
口口口口
口口⑦口 |⑤---|
⑤口口⑤ |⑥-⑦-|
38
口口口口 |①-②-|
②①①③ |③-④-|
④口口口
口口口口

口口口口
口⑥⑥口
口口⑦口 |⑤---|
⑤口口⑤ |⑥-⑦-|
39
①口②口 |①-②-|
⑤口⑤口 |③-④-|
③口口④ |⑤---|
⑥口口⑦ |⑥-⑦-|
40
③口口口 |①-②-|
口口④② |③-④-|
①口口口
口口口口

口口口口
⑥口口⑦
口口口口 |⑤---|
⑤口⑤口 |⑥-⑦-|
41
口口口口 |①---|
口①①口 |----|
口口口口
口口口口

口口口口
口③③口
口口口口 |②---|
②口口② |③---|
42
口④④口 |①---|
口③③口 |②---|
口②②口 |③---|
口①①口 |④---|
43
③口口③ |①---|
①③③① |----|
①②②① |②---|
②口口② |③---|
44
口口口口 |①---|
①口口① |----|
①口口①
口口口口

口口口口
口口口口
③口③③ |②---|
②②口② |③---|
45
口口口口 |①---|
①①①① |----|
③③②② |②---|
②②③③ |③---|
46
口口口口 |①---|
①①①① |----|
口口口口
口口口口

口口口口
③口口口
②口口③ |②---|
口口口② |③---|
47
口①④口 |①---|
口②③口 |②---|
口③②口 |③---|
口④①口 |④---|
48
口口口① |①---|
③③②② |②---|
②②③③ |③---|
①④④口 |④---|
49
①②口③ |①-②③|
④⑤口⑥ |④-⑤⑥|
⑦⑧⑨口 |⑦⑧⑨-|
口⑩⑪⑫ |⑩⑪⑫-|
50
①口口② |①-②-|
口③③口 |③-④⑤|
④⑦⑦⑤ |-⑥--|
口⑥⑥口 |⑦---|
51
③口②① |①-②③|
⑥口⑤④ |④-⑤⑥|
口⑨⑧⑦ |⑦⑧⑨-|
⑫⑪⑩口 |⑩⑪⑫-|
52
②口口① |①-②-|
口③③口 |③-④⑤|
⑤⑦⑦④ |-⑥--|
口⑥⑥口 |⑦---|
53
①②口③ |①-②③|
④⑤口⑥ |④-⑤⑥|
⑦⑧⑨口 |⑦⑧⑨-|
口⑩⑪⑫ |⑩⑪⑫-|
54
①口口② |①-②-|
口③③口 |③-④⑤|
④⑦⑦⑤ |-⑥--|
口⑥⑥口 |⑦---|
55
③口②① |①-②③|
⑥口⑤④ |④-⑤⑥|
口⑨⑧⑦ |⑦⑧⑨-|
⑫⑪⑩口 |⑩⑪⑫-|
56
②口口① |①-②-|
口③③口 |③-④-|
⑥④④⑥ |⑤---|
⑤口口⑤ |⑥---|
57
④口②口 |①-②③|
口口口口 |④-⑤-|
口①①口
口⑤③口

口⑥口口
口⑪⑦⑧
口口⑩口 |⑥⑦-⑧|
口口口⑨ |⑨⑩-⑪|
58
②口①口 |-①②-|
④口③口 |③④⑤-|
口口口口
⑤口口口

口口⑫⑦
口口口口
⑨⑧⑩口 |⑥-⑦⑧|
口⑪⑥⑥ |⑨⑩⑪⑫|
59
②②口口 |①-②-|
③③①① |③-④-|
口口口口
口口④④

⑥⑥口口
⑦⑦口口
口口⑤⑤ |⑤---|
口口口口 |⑥-⑦-|
60
口口①① |--①-|
口口②② |②-③-|
④④⑤⑤ |④---|
③③⑥⑥ |⑤-⑥-|
61
②⑥⑦⑤ |①-②③|
①③⑨① |④-⑤-|
④口⑪口 |⑥⑦-⑧|
口⑧口⑩ |⑨⑩-⑪|
62
口③口口 |-①②-|
口⑤口④ |③④⑤-|
口口口①
口口②口

⑫口⑥⑥
⑩口⑦口
口⑪⑧⑨ |⑥-⑦⑧|
口口口口 |⑨⑩⑪⑫|
63
口口②② |①-②-|
口口③③ |③-④-|
口口口口
④④①①

口口⑥⑥
口口⑦⑦
⑤⑤口口 |⑤---|
口口口口 |⑥-⑦-|
64
①①口口 |--①-|
②②口口 |②-③-|
⑤⑤④④ |④---|
⑥⑥③③ |⑤-⑥-|


不確定度: 0

最終更新:2013年03月17日 02:08