もののけ姫
新井 大樹

BASIC

Level: 2
BPM: 131-140
Notes: 131

BPM: 140
1
口口口口 |----|
口口口口 |----|
口口口口 |----|
口口口口 |----|
2
口口口口 |①---|
口口①口 |----|
口口口口 |----|
口口口口 |----|
3
口口口口 |①---|
口①口口 |----|
口口口口 |----|
口口口口 |----|
4
口口口口 |①---|
口口①口 |----|
口口口口 |----|
口口口口 |----|
5
口口口口 |①---|
口①口口 |----|
口口口口 |----|
口口口口 |----|
6
①口口口 |①---|
口口口口 |----|
口口口口 |----|
口口口口 |----|
7
口①②口 |①---|
口口口口 |----|
口口口口 |②---|
口口口口 |----|
8
口口口① |①---|
口口口口 |----|
口口口口 |----|
口口口口 |----|
9
口口口口 |①---|
口①①口 |----|
口口口口 |----|
口口口口 |----|
10
口口口口 |①---|
①口口口 |----|
口口口口 |----|
口口口口 |----|
11
口口口口 |①---|
口①口口 |----|
口口口口 |----|
口口口口 |----|
12
口口口口 |①---|
口口①口 |----|
口口口口 |----|
口口口口 |----|
13
口口口口 |①---|
口口口① |----|
口口口口 |----|
口口口口 |----|
14
口口口口 |①---|
口口口口 |----|
口口口① |----|
口口口口 |----|
15
口口口口 |①---|
口口口口 |②---|
③②①口 |③---|
口口口口 |----|
16
口口口口 |①---|
①口口口 |----|
口口口口 |----|
口口口口 |----|
17
口口口口 |①---|
口①①口 |----|
口口口口 |----|
口口口口 |----|
18
口口口口 |①---|
①口口口 |----|
口口口口 |----|
口口口口 |----|
19
口口口口 |①---|
口①口口 |----|
口口口口 |----|
口口口口 |----|
20
口口口口 |①---|
口口①口 |----|
口口口口 |----|
口口口口 |----|
21
口口口口 |①---|
口口口① |----|
口口口口 |----|
口口口口 |----|
22
口口口口 |①---|
口口口口 |----|
口口口① |----|
口口口口 |----|
23
口口口口 |①---|
口口口口 |②---|
③②①口 |③---|
口口口口 |----|
24
②口口口 |①---|
①口口口 |----|
口口口口 |②---|
口口口口 |----|
25
口①①口 |①---|
口口口口 |----|
口口口口 |----|
口口口口 |----|

BPM: 131
26
口口口① |①---|
口口口口 |----|
口口口口 |----|
口口口口 |----|
27
口口口口 |①---|
口口口① |----|
口口口口 |----|
口口口口 |----|
28
口口口口 |①---|
口口口口 |----|
口口口① |----|
口口口口 |----|
29
口口口口 |①---|
口口口口 |----|
口①口口 |----|
口口口口 |----|
30
口口口口 |①---|
①②③口 |②---|
口口口口 |③---|
口口口口 |----|
31
口口口口 |①---|
口口口口 |----|
口①①口 |----|
口口口口 |----|
32
口口口口 |----|
口口口口 |----|
口口口口
口口口口
33
口口口口 |①---|
口②②口 |----|
口①①口 |②---|
口口口口 |----|
34
口①①口 |①---|
口口口口 |----|
口口口口 |----|
口口口口 |----|
35
口口口口 |①---|
②口口② |----|
①口口① |②---|
口口口口 |----|
36
①口口① |①---|
口口口口 |----|
口口口口 |----|
口口口口

BPM: 140

口口口口
口口口口
口口口口
口口口口 |----|
37
口口口口 |①---|
①口口口 |----|
口口口口 |----|
口口口口 |----|
38
口口口口 |①---|
口①口口 |----|
口口口口 |----|
口口口口 |----|
39
口口口口 |①---|
口口①口 |----|
口口口口 |----|
口口口口 |----|
40
口口口口 |①---|
口口口① |----|
口口口口 |----|
口口口口 |----|
41
①口口口 |①---|
口口口口 |----|
口口口口 |----|
口口口口 |----|
42
口①②口 |①---|
口口口口 |----|
口口口口 |②---|
口口口口 |----|
43
口口口① |①---|
口口口口 |----|
口口口口 |----|
口口口口 |----|
44
口口口口 |①---|
口①①口 |----|
口口口口 |----|
口口口口 |----|
45
口口口口 |①---|
①口口① |----|
口口口口 |----|
口口口口 |----|
46
口口口口 |①---|
口①口① |----|
口口口口 |----|
口口口口 |----|
47
口口口口 |①---|
①口①口 |----|
口口口口 |----|
口口口口 |----|
48
口口口口 |①---|
口①口① |----|
口口口口 |----|
口口口口 |----|
49
口口口口 |①---|
口口口口 |----|
口口①① |----|
口口口口 |----|
50
口口口口 |①---|
口口口口 |②---|
③②①口 |③---|
口口口口 |----|
51
口口口口 |①---|
①①口口 |----|
口口口口 |----|
口口口口 |----|
52
口口口口 |①---|
口①①口 |----|
口口口口 |----|
口口口口 |----|
53
口口口口 |①---|
①口口口 |----|
①口口口 |----|
口口口口 |----|
54
口口口口 |①---|
口①口口 |----|
口①口口 |----|
口口口口 |----|
55
口口口口 |①---|
口口①口 |----|
口口①口 |----|
口口口口 |----|
56
口口口口 |①---|
口口口① |----|
口口口① |----|
口口口口 |----|
57
口口口口 |①---|
口口口口 |----|
口口口① |----|
口口口① |----|
58
口口口口 |①---|
口口口口 |②---|
③②①口 |③---|
口口口口 |----|
59
②口口② |①---|
①①口口 |----|
口口口口 |②---|
口口口口 |----|
60
口①①口 |①---|
口口口口 |----|
口口口口 |----|
口口口口 |----|
61
口口口① |①---|
口口口口 |----|
口口口口 |----|
口口口口 |----|
62
口口口口 |①---|
口口①① |②---|
口口②② |③---|
口口③③ |----|
63
口口口口 |①---|
口口口口 |----|
口口②① |②---|
口口口口 |----|
64
口口口口 |①---|
口口口口 |----|
口①口口 |----|
口口口口 |----|
65
口口口口 |①---|
口口口口 |----|
①口口口 |----|
口口口口 |----|
66
口口口口 |①---|
口口口口 |----|
口①①口 |----|
口口口口 |----|
67
口口口口 |----|
口口口口 |----|
口口口口
口口口口
68
口口口口 |①---|
口②②口 |----|
口①①口 |②---|
口口口口 |----|
69
口①①口 |①---|
口口口口 |----|
口口口口 |----|
口口口口 |----|
70
口口口口 |①---|
②②②② |----|
①①①① |②---|
口口口口 |----|
71
①①①① |①---|
口口口口 |----|
口口口口 |----|
口口口口 |----|


不確定度: 0

最終更新:2013年03月17日 02:08