もののけ姫
新井 大樹

ADVANCED

Level: 5
BPM: 131-140
Notes: 371

BPM: 140
1
口口口口 |----|
口口口口 |----|
口口口口 |----|
口口口口 |----|
2
口口口口 |①---|
②口口② |②---|
⑤①①口 |③-④-|
口③④口 |--⑤-|
3
口口口口 |①---|
口口口口 |----|
口口口① |----|
口口口口 |----|
4
口口口口 |①---|
②口口② |②---|
⑤①①口 |③-④-|
口③④口 |--⑤-|
5
口口口口 |①---|
口口口口 |----|
口口口① |----|
口口口口 |----|
6
①口口① |①---|
口口口口 |----|
口口口口 |----|
口口口口 |----|
7
口口口口 |①---|
④①①④ |②---|
②③③② |③---|
口口口口 |④---|
8
口①①口 |①---|
口口口口 |----|
口口口口 |----|
口口口口 |----|
9
口口口口 |①---|
①口口① |----|
口①①口 |----|
口口口口 |----|
10
口口⑥④ |①-②-|
③口口口 |③-④-|
⑤口口② |⑤---|
①口口口 |--⑥-|
11
口口口口 |①-②-|
口口口口 |----|
口②口口 |----|
①口②口 |----|
12
口口口④ |①-②-|
③口口⑥ |③-④-|
⑤口口② |⑤---|
①口口口 |--⑥-|
13
口①①口 |①---|
口口口口 |----|
口口口口
口口口口

口口②口
口③口口
口口口口 |----|
口口口口 |②-③-|
14
④⑤口③ |①-②-|
④口⑤③ |③-④-|
②⑥口① |⑤---|
②口口① |--⑥-|
15
①口口① |①---|
口②②口 |②---|
③口口③ |③---|
口口口口 |----|
16
口①②口 |①-②-|
口③④口 |③-④-|
口⑤⑤口 |⑤---|
⑥口口⑥ |⑥---|
17
口口口口 |①---|
口①①口 |----|
口口口口 |----|
口口口口 |----|
18
口口⑥④ |①-②-|
③口口口 |③-④-|
⑤口口② |⑤---|
①口口口 |--⑥-|
19
口口口口 |①---|
口①①口 |----|
口口口口 |----|
口口口口 |----|
20
口口口④ |①-②-|
③口口⑦ |③-④-|
口口口② |⑤-⑥-|
①⑥口⑤ |--⑦-|
21
②①①口 |①---|
口口口口 |----|
口口③口 |----|
口口口口 |②-③-|
22
口口口口 |①---|
③④④② |②-③-|
口⑤口口 |④---|
①口口① |--⑤-|
23
口①①口 |①---|
口②②口 |②---|
③口口③ |③---|
口口口口 |----|
24
口①②口 |①-②-|
口③④口 |③-④-|
口⑤⑥口 |⑤-⑥-|
口⑦口口 |--⑦-|
25
口口口口 |①---|
口①①口 |----|
①口口① |----|
口口口口 |----|

BPM: 131
26
①②③④ |①-②-|
口口口⑤ |③-④-|
口口口⑥ |⑤---|
口口口口 |--⑥-|
27
①①口口 |①---|
②②口口 |②---|
口口口口 |③---|
③③口口 |----|
28
口口②② |①---|
口口口口 |②---|
口口①①
口口口口

口口口口
口口③③
口口⑤④ |③---|
口口口口 |④-⑤-|
29
①②③④ |①-②-|
口口口⑤ |③-④-|
口口口⑥ |⑤---|
口口口口 |--⑥-|
30
①①口口 |①---|
②②口口 |②---|
口④口口 |③---|
③③口口 |--④-|
31
口口口口 |①--②|
口口口① |--③-|
④④②② |④---|
口口③③ |----|
32
口口口口 |----|
口口口口 |①-②-|
口①②口
口口口口
33
口口②② |①---|
①①口口 |②---|
口口口口
口口口口

口③口口
口⑤④口
口口口口 |③-④-|
口口口口 |--⑤-|
34
口口口口 |①---|
①口口① |----|
口②③口 |----|
口口口口 |②-③-|
35
②②口口 |①---|
①①口口 |②---|
口口口口
口口口口

口口③口
口⑤④口
口口口口 |③-④-|
口口口口 |--⑤-|
36
口口口口 |①---|
①口口① |----|
口口口口 |----|
口口口口

BPM: 140

口②③口
口口口口
口口口口
口口口口 |②-③-|
37
口口口口 |①---|
②口口② |②---|
⑤①①口 |③-④-|
口③④口 |--⑤-|
38
口口口口 |①---|
口口口口 |----|
口口口① |----|
口口口口 |----|
39
口口口口 |①---|
②口口② |②---|
⑤①①口 |③-④-|
口③④口 |--⑤-|
40
口口口口 |①---|
口口口口 |----|
口口口① |----|
口口口口 |----|
41
①口口① |①---|
口口口口 |----|
口口口口 |----|
口口口口 |----|
42
口口口口 |①---|
④①①④ |②---|
②③③② |③---|
口口口口 |④---|
43
口①①口 |①---|
口口口口 |----|
口口口口 |----|
口口口口 |----|
44
口口口口 |①---|
①口口① |----|
口①①口 |----|
口口口口 |----|
45
口口⑥④ |①-②-|
③口口口 |③-④-|
⑤口口② |⑤---|
①口口口 |--⑥-|
46
口口口口 |①-②-|
口口口口 |----|
口②口口 |----|
①口②口 |----|
47
口口口④ |①-②-|
③口口⑥ |③-④-|
⑤口口② |⑤---|
①口口口 |--⑥-|
48
口①①口 |①---|
口口口口 |----|
口口口口
口口口口

口口②口
口③口口
口口口口 |----|
口口口口 |②-③-|
49
④⑤口③ |①-②-|
④口⑤③ |③-④-|
②⑥口① |⑤---|
②口口① |--⑥-|
50
①口口① |①---|
口②②口 |②---|
③口口③ |③---|
口口口口 |----|
51
口①②口 |①-②-|
口③④口 |③-④-|
口⑤⑤口 |⑤---|
⑥口口⑥ |⑥---|
52
口口口口 |①---|
口①①口 |----|
口口口口 |----|
口口口口 |----|
53
口口⑥④ |①-②-|
③口口口 |③-④-|
⑤口口② |⑤---|
①口口口 |--⑥-|
54
口口口口 |①---|
口①①口 |----|
口口口口 |----|
口口口口 |----|
55
口口口④ |①-②-|
③口口⑦ |③-④-|
口口口② |⑤-⑥-|
①⑥口⑤ |--⑦-|
56
②①①口 |①---|
口口口口 |----|
口口③口 |----|
口口口口 |②-③-|
57
口口口口 |①---|
③④④② |②-③-|
口⑤口口 |④---|
①口口① |--⑤-|
58
口①①口 |①---|
口②②口 |②---|
③口口③ |③---|
口口口口 |----|
59
口①②口 |①-②-|
口③④口 |③-④-|
口⑤⑥口 |⑤-⑥-|
口⑦口口 |--⑦-|
60
口口口口 |①---|
口①①口 |----|
①口口① |----|
口口口口 |----|
61
①②③④ |①-②-|
口口口⑤ |③-④-|
口口口⑥ |⑤---|
口口口口 |--⑥-|
62
①①口口 |①---|
②②口口 |②---|
口口口口 |③---|
③③口口 |----|
63
口口②② |①---|
口口口口 |②---|
口口①①
口口口口

口口口口
口口③③
口口⑤④ |③---|
口口口口 |④-⑤-|
64
①②③④ |①-②-|
口口口⑤ |③-④-|
口口口⑥ |⑤---|
口口口口 |--⑥-|
65
①①口口 |①---|
②②口口 |②---|
口④口口 |③---|
③③口口 |--④-|
66
口口口口 |①--②|
口口口① |--③-|
④④②② |④---|
口口③③ |----|
67
口口口口 |----|
口口口口 |①-②-|
口①②口
口口口口
68
口口②② |①---|
①①口口 |②---|
口口口口
口口口口

口③口口
口⑤④口
口口口口 |③-④-|
口口口口 |--⑤-|
69
口口口口 |①---|
①口口① |----|
口②③口 |----|
口口口口 |②-③-|
70
②口口② |①---|
口①①口 |②---|
口口口口
口口口口

口口口口
口⑤⑤口
口③④口 |③-④-|
口口口口 |--⑤-|
71
口①①口 |①---|
①口口① |----|
口口口口 |----|
口口口口 |----|


不確定度: 0

最終更新:2013年03月17日 02:08