もののけ姫
新井 大樹

EXTREME

Level: 8
BPM: 131-140
Notes: 724

BPM: 140
1
口口口口 |----|
①口口② |----|
③口口④ |----|
口口口口 |①②③④|
2
②口口口 |①---|
口①①口 |②---|
口口②口
口口口口

⑤口③口
③口口④
⑤④口口 |③-④-|
口口口口 |--⑤-|
3
口口口① |①---|
口口口口 |----|
口口口①
口口口口

口口口口
口口口②
③口口④ |----|
口口口口 |-②③④|
4
①口口② |①---|
口口①口 |②---|
口②口口
口口口口

⑤口口口
③口口④
⑤口口口 |③-④-|
③口口④ |--⑤-|
5
口口口① |①---|
口⑤口口 |----|
口口③① |----|
口④口② |②③④⑤|
6
①②③④ |①-②-|
口口口口 |③-④⑤|
⑥口口⑤ |--⑥⑦|
⑦⑧⑨⑩ |⑧⑨⑩-|
7
口④④口 |①---|
②①①② |②---|
②①①② |③---|
口③③口 |④---|
8
④口口④ |①-②-|
口②⑥口 |③---|
①⑤③① |④--⑤|
①口口① |--⑥-|
9
口⑧⑤口 |①②③④|
⑥口口⑦ |⑤⑥⑦⑧|
②口③口
④口口①

⑩口⑮⑨
口⑯⑪口
⑭口口口 |⑨⑩⑪⑫|
口⑫口⑬ |⑬⑭⑮⑯|
10
⑥④⑥④ |①-②-|
③口③口 |③-④-|
⑤②口② |⑤---|
①口①⑤ |--⑥-|
11
口③口口 |①-②-|
口①口① |③---|
⑥②⑤口 |④--⑤|
口④②口 |--⑥-|
12
口④口④ |①-②-|
③⑥③⑥ |③-④-|
⑤②口② |⑤---|
①口①⑤ |--⑥-|
13
①口口① |①-②-|
口口口口 |-③--|
口口口口
②口口③

⑤口⑤口
口⑥口④
口口⑥口 |④---|
口口口口 |⑤-⑥-|
14
④⑤口③ |①-②-|
④口⑤③ |③-④-|
②⑥口① |⑤---|
②口⑥① |--⑥-|
15
口口口口 |①---|
①①口① |②---|
②口②②
口口口口

口口口口
⑤口口④
口口口口 |③--④|
③③口③ |--⑤-|
16
④①②口 |①-②-|
口③口口 |③-④-|
①口口④
口口③②

口口⑥口
口口口口
口⑤⑤口 |⑤---|
口⑥口口 |⑥---|
17
⑧口口① |①②③④|
口②⑦口 |⑤⑥⑦⑧|
口⑥③口
④口口⑤

口⑫口口
口⑯口⑪
⑩口⑬⑨ |⑨⑩⑪⑫|
口⑭口⑮ |⑬⑭⑮⑯|
18
⑥④⑥④ |①-②-|
③口③口 |③-④-|
⑤②口② |⑤---|
①口①⑤ |--⑥-|
19
口口口口 |①-②-|
口①口① |-③--|
口口口口
口口②③

口口口口
口⑤口口
口口⑥口 |④--⑤|
口④口口 |--⑥-|
20
口④口④ |①-②-|
③⑦③⑦ |③-④-|
⑤②⑥② |⑤-⑥-|
①⑥①⑤ |--⑦-|
21
①口口① |①-②-|
口口口口 |-③--|
口口口口
②口口③

⑥口⑥口
口⑦口④
口⑤⑦口 |④--⑤|
口口口口 |⑥-⑦-|
22
③④口② |①---|
③口④② |②-③-|
口⑤口① |④---|
口口⑤① |--⑤-|
23
口口口口 |①---|
①①口① |②---|
②口②② |③---|
③③口③ |----|
24
口①②口 |①-②-|
①③④② |③-④-|
③口口④
口口口口

口口⑦口
口口口口
口⑤⑥口 |⑤-⑥-|
⑤⑦口⑥ |--⑦-|
25
口口口口 |①-②-|
口①①口 |-③--|
①③口①
口口②口

口口④口
口口口口
口口口口 |④--⑤|
口⑤⑥口 |--⑥-|

BPM: 131
26
③③口口 |①-②-|
①①④④ |③-④-|
口口②②
口口口口

口口⑤⑤
口口口口
⑥口口⑥ |⑤---|
口口口口 |--⑥-|
27
①①口口 |①---|
口口②② |②---|
口口口口 |③---|
③③口口 |----|
28
口②⑤口 |①---|
口③口② |②---|
口①③口 |③---|
④口口① |④-⑤-|
29
口口口④ |①-②-|
①②③⑤ |③-④-|
④口⑥口 |⑤---|
⑤③②① |--⑥-|
30
①①①① |①---|
口口②口 |②---|
口②口口
口口口口

口口口口
口口④口
口④口口 |③---|
③口口③ |--④-|
31
口①①口 |①--②|
②口口② |--③-|
③口口③ |④---|
口④④口 |----|
32
口口口口 |----|
口①②口 |①-②-|
口①②口
口口口口
33
③①④⑤ |①---|
①⑤口② |②---|
①⑤口② |③-④-|
口④②③ |--⑤-|
34
口口口口 |①---|
口口①口 |----|
口口①口
①口口口

口口口口
口②③口
口②③口 |----|
口口口口 |②-③-|
35
③①④⑤ |①---|
①⑤口② |②---|
①⑤口② |③-④-|
口④②③ |--⑤-|
36
口口口口 |①---|
口口①口 |----|
②口①② |②---|
①②②口

BPM: 140

口③④口
⑤口口⑥
口口口口
口口口口 |③④⑤⑥|
37
口口口口 |①---|
口①②口 |②---|
口②①口
口口口口

③⑤口口
③⑤口口
口口④口 |③-④-|
口口④口 |--⑤-|
38
口口口① |①-②-|
口口口口 |-③--|
口口口口
①口③②

④⑤口口
口口口口
口口口⑦ |④--⑤|
⑧⑥口口 |-⑥⑦⑧|
39
口口口口 |①---|
口①②口 |②---|
口②①口
口口口口

③⑤口口
③⑤口口
口口④口 |③-④-|
口口④口 |--⑤-|
40
口口口① |①-②-|
口口口口 |-③--|
口口口口
①口③②

⑨口口口
口⑥口⑦
口口口⑧ |④--⑤|
⑤④口口 |⑥⑦⑧⑨|
41
口口口口 |①-②-|
④口③⑤ |③-④⑤|
口②口口
口口①口

⑥口口⑦
口口口口
口口口口 |--⑥⑦|
⑧⑩⑨⑪ |⑧⑨⑩⑪|
42
口④④口 |①---|
②①①② |②---|
②①①② |③---|
口③③口 |④---|
43
口口口口 |①-②-|
②口③口 |③---|
①口口①
①口口①

口口口口
口④⑥⑤
口口口口 |④--⑤|
口口口口 |--⑥-|
44
口⑧⑤口 |①②③④|
⑥口口⑦ |⑤⑥⑦⑧|
②口③口
④口口①

⑩口⑮⑨
口⑯⑪口
⑭口口口 |⑨⑩⑪⑫|
口⑫口⑬ |⑬⑭⑮⑯|
45
⑥④⑥④ |①-②-|
③口③口 |③-④-|
⑤②口② |⑤---|
①口①⑤ |--⑥-|
46
口③口口 |①-②-|
口①口① |③---|
⑥②⑤口 |④--⑤|
口④②口 |--⑥-|
47
口④口④ |①-②-|
③⑥③⑥ |③-④-|
⑤②口② |⑤---|
①口①⑤ |--⑥-|
48
①口口① |①-②-|
口口口口 |-③--|
口口口口
②口口③

⑤口⑤口
口⑥口④
口口⑥口 |④---|
口口口口 |⑤-⑥-|
49
④⑤口③ |①-②-|
④口⑤③ |③-④-|
②⑥口① |⑤---|
②口⑥① |--⑥-|
50
口口口口 |①---|
①①口① |②---|
②口②② |③---|
③③口③ |----|
51
④①⑥口 |①-②-|
口③②口 |③-④-|
①⑤⑤④ |⑤---|
口⑥③② |⑥---|
52
⑧口口① |①②③④|
口②⑦口 |⑤⑥⑦⑧|
口⑥③口
④口口⑤

口⑫口口
口⑯口⑪
⑩口⑬⑨ |⑨⑩⑪⑫|
口⑭口⑮ |⑬⑭⑮⑯|
53
⑥④⑥④ |①-②-|
③口③口 |③-④-|
⑤②口② |⑤---|
①口①⑤ |--⑥-|
54
口口口口 |①---|
口①口① |②---|
②口②口
口口口口

口口口口
口④口④
口口口③ |③---|
口③口口 |④---|
55
口④口④ |①-②-|
③⑦③⑦ |③-④-|
⑤②⑥② |⑤-⑥-|
①⑥①⑤ |--⑦-|
56
①①口① |①---|
口口口口 |----|
口口口口
口口口口

②口②口
口③口口
口口③口 |----|
口口口口 |②-③-|
57
③④口② |①---|
③口④② |②-③-|
口⑤口口 |④---|
口①⑤① |--⑤-|
58
口口口口 |①---|
①①口① |②---|
②口②② |③---|
③③口③ |----|
59
口①②口 |①-②-|
①③④② |③-④-|
③口口④
口口口口

口口⑦口
口口口口
口⑤⑥口 |⑤-⑥-|
⑤⑦口⑥ |--⑦-|
60
口口口口 |①-②-|
口①①口 |-③--|
①③口①
口口②口

口口④口
口口口口
口口口口 |④--⑤|
口⑤⑥口 |--⑥-|
61
③③口口 |①-②-|
①①④④ |③-④-|
口口②②
口口口口

口口⑤⑤
口口口口
⑥口口⑥ |⑤---|
口口口口 |--⑥-|
62
①①口口 |①---|
口口②② |②---|
口口口口 |③---|
③③口口 |----|
63
口②⑤口 |①---|
口③口② |②---|
口①③口 |③---|
④口口① |④-⑤-|
64
口口口④ |①-②-|
①②③⑤ |③-④-|
④口⑥口 |⑤---|
⑤③②① |--⑥-|
65
①①①① |①---|
口口②口 |②---|
口②口口
口口口口

口口口口
口口④口
口④口口 |③---|
③口口③ |--④-|
66
口①①口 |①--②|
②口口② |--③-|
③口口③ |④---|
口④④口 |----|
67
口口口口 |----|
口①②口 |①-②-|
口①②口
口口口口
68
③①③⑤ |①---|
①⑤口② |②---|
①⑤口② |③-④-|
口④②④ |--⑤-|
69
口口口口 |①---|
口口①口 |----|
口口①口
①口口口

口口口口
口②③口
口②③口 |----|
口口口口 |②-③-|
70
口①口口 |①---|
①口口② |②---|
①口口②
口口②口

口口③口
⑤③口⑤
口口④口 |③-④-|
口④口口 |--⑤-|
71
⑨口④口 |①--②|
口③⑥口 |③-④-|
①⑦口① |⑤--⑥|
口⑤②⑧ |⑦-⑧⑨|


不確定度: 0

最終更新:2013年03月17日 02:07