海の見える街
新井 大樹

BASIC

Level: 2
BPM: 135
Notes: 171

1
口口口口 |----|
口口口口 |----|
口口口口 |----|
口口口口 |----|
2
口口口口 |①---|
口口②① |----|
口口口口 |----|
口口口口 |②---|
3
口口口口 |①---|
口②口口 |----|
口①口口 |----|
口口口口 |②---|
4
口口口口 |①---|
口口②口 |----|
口③①口 |②---|
口口口口 |③---|
5
口口口口 |①---|
口②口口 |----|
口口①口 |②---|
口口口口 |----|
6
口①口② |①---|
口口口口 |----|
口口口口 |----|
口口口口 |②---|
7
口口口口 |①---|
口口②① |----|
口口口口 |②---|
口口口口 |----|
8
口口口口 |①---|
②①口口 |----|
③口口口 |②---|
口口口口 |③---|
9
口口口口 |①---|
口①口口 |----|
口口口口 |----|
口口口口 |----|
10
口口口口 |①---|
口口②① |----|
口口口口 |②---|
口口口口 |----|
11
口口口口 |①---|
①口③口 |②---|
口②口口 |③---|
口口口口 |----|
12
口口口口 |①---|
口②③口 |②---|
口④①口 |③---|
口口口口 |④---|
13
口口口口 |①---|
①口口口 |----|
口口口口 |----|
口口口口 |----|
14
口口口口 |①---|
口口②① |----|
口口口口 |②---|
口口口口 |----|
15
口口口口 |①---|
①口③口 |②---|
口②口口 |③---|
口口口口 |----|
16
口口口口 |①---|
口②③口 |②---|
口④①口 |③---|
口口口口 |④---|
17
口口口口 |①---|
①口口口 |----|
口口口口 |----|
口口口口 |----|
18
口口口口 |①---|
口口②① |----|
口口口口 |②---|
口口口口 |----|
19
口口口口 |①---|
①口③口 |②---|
口②口口 |③---|
口口口口 |----|
20
口口口口 |①---|
口②③口 |②---|
口④①口 |③---|
口口口口 |④---|
21
口口口口 |①---|
①口口口 |----|
口口口口 |----|
口口口口 |----|
22
口口口口 |①---|
口口②① |----|
口口口口 |②---|
口口口口 |----|
23
口口口口 |①---|
①口③口 |②---|
口②口口 |③---|
口口口口 |----|
24
口口口口 |①---|
口②③口 |②---|
口④①口 |③---|
口口口口 |④---|
25
口口口口 |①---|
①口口口 |----|
口②口口 |----|
口口口口 |②---|
26
口口口口 |①---|
③②①口 |②---|
口④口口 |③---|
口口口口 |④---|
27
口口口口 |①---|
口口口口 |----|
口口①口 |----|
口口口口 |----|
28
口口口口 |①---|
口①②③ |②---|
口口④口 |③---|
口口口口 |④---|
29
口口口口 |①---|
口口口口 |----|
口口口口 |----|
口①口口 |----|
30
口口口口 |①---|
口口口口 |②---|
口②口口 |③---|
口③①口 |----|
31
口口口口 |①---|
口③②口 |②---|
口④①口 |③---|
口口口口 |④---|
32
口①①口 |①---|
②口口② |----|
口口口口 |②---|
口口口口 |----|
33
口口口口 |①---|
口口口口 |----|
①口口① |②---|
口②②口 |----|
34
口口口口 |①---|
口口口② |----|
口①①口 |②---|
口口口口 |----|
35
口口口口 |①---|
②口①口 |----|
口③口口 |②---|
口口口口 |③---|
36
口口口口 |①---|
口③①口 |----|
口口②口 |②---|
口口口口 |③---|
37
口口口口 |①---|
③口①口 |②---|
口②口口 |③---|
口口口口 |----|
38
口口口口 |----|
口口口① |----|
口口口口 |①---|
口口口口 |----|
39
口口口口 |①---|
②口①口 |----|
口③口口 |②---|
口口口口 |③---|
40
口口口口 |①---|
口③①口 |----|
口口②口 |②---|
口口口口 |③---|
41
口口口口 |①---|
③口①口 |②---|
口②口口 |③---|
口口口口 |----|
42
①①①① |----|
口口口口 |----|
口口口口 |①---|
口口口口 |----|
43
口口口口 |----|
口口①口 |①---|
口②口口 |②---|
口口口口 |----|
44
口口口口 |----|
口①口口 |①---|
口口②口 |②---|
口口口口 |----|
45
口口口口 |①---|
口口口口 |②---|
口①口③ |③---|
口口②口 |----|
46
②②②② |①---|
口①①口 |----|
口口口口 |②---|
口口口口 |----|
47
口口口口 |----|
口①口口 |①---|
口口②口 |②---|
口口口口 |----|
48
口口口口 |①---|
口口①口 |②---|
口②口口 |③---|
口口③口 |----|
49
口口口口 |①---|
③口口③ |②---|
口①②口 |③---|
口口口口 |----|
50
口口口口 |----|
口口口① |----|
口口口口 |①---|
口口口口 |----|
51
口口口口 |①---|
②口①口 |----|
口③口口 |②---|
口口口口 |③---|
52
口口口口 |①---|
口③①口 |----|
口口②口 |②---|
口口口口 |③---|
53
口口口口 |①---|
③口①口 |②---|
口②口口 |③---|
口口口口 |----|
54
口口口口 |----|
口口口① |----|
口口口口 |①---|
口口口口 |----|
55
口口口口 |①---|
②口①口 |----|
口③口口 |②---|
口口口口 |③---|
56
口口口口 |①---|
口③①口 |----|
口口②口 |②---|
口口口口 |③---|
57
口口口口 |①---|
③口①口 |②---|
口②口口 |③---|
口口口口 |----|
58
口口口口 |----|
口口口① |----|
口口口口 |①---|
口口口口 |----|
59
口口口口 |①---|
②口①口 |----|
口③口口 |②---|
口口口口 |③---|
60
口口口口 |①---|
口③①口 |----|
口口②口 |②---|
口口口口 |③---|
61
口口口口 |①---|
③口①口 |②---|
口②口口 |③---|
口口口口 |----|
62
口口口口 |----|
口口口① |----|
口口口口 |①---|
口口口口 |----|
63
口口口口 |①---|
②口①口 |----|
口③口口 |②---|
口口口口 |③---|
64
口口口口 |①---|
口③①口 |----|
口口②口 |②---|
口口口口 |③---|
65
口口口口 |①---|
③口①口 |②---|
口②口口 |③---|
口口口口 |----|


不確定度: 0

最終更新:2013年03月17日 02:05