海の見える街
新井 大樹

ADVANCED

Level: 5
BPM: 135
Notes: 416

1
口口口口 |----|
口口口口 |----|
口口口口 |----|
口口口口 |----|
2
口⑤③口 |①②③-|
④②⑥③ |----|
①口口口 |----|
口口口口 |④⑤⑥-|
3
口口③口 |①---|
口④口② |----|
口口口① |----|
口口①口 |②③④-|
4
口口口② |①---|
口口②口 |----|
①③口口 |②---|
口①③口 |③---|
5
口口口口 |①---|
口①②口 |----|
口②①口 |②---|
口口口口 |----|
6
口⑥③④ |①②③④|
⑤②⑦口 |----|
①口口口 |----|
口口口口 |⑤⑥⑦-|
7
口口④② |①---|
口⑤口③ |--②-|
口口口① |----|
口口口口 |③④⑤-|
8
口口口口 |①---|
②口口② |----|
①③③口 |②---|
口口口口 |③---|
9
口①①口 |①---|
口②口口 |----|
①口口① |----|
口口口口 |--②-|
10
口口①口 |①---|
口口③① |--②-|
口②口③ |③---|
口④口口 |--④-|
11
口口口口 |①---|
口口口口 |②-③-|
口②①④ |④---|
⑤口③① |--⑤-|
12
口⑥⑤④ |①-②-|
⑦口口口 |③-④-|
⑧口口③ |⑤-⑥-|
口①②口 |⑦-⑧-|
13
口口口口 |①---|
口①①口 |----|
口①①口
口口口口

口口口口
口口②口
口口口口 |----|
口口口口 |--②-|
14
口①口口 |①---|
①③口口 |--②-|
③口②口 |③---|
口口④口 |--④-|
15
口口口口 |①---|
口口口口 |②-③-|
④①②口 |④---|
①③口⑤ |--⑤-|
16
④⑤⑥口 |①-②-|
口口口⑦ |③-④-|
③口口⑧ |⑤-⑥-|
口②①口 |⑦-⑧-|
17
口口口口 |①---|
口①①口 |----|
口①①口
口口口口

口口口口
口②口口
口口口口 |----|
口口口口 |--②-|
18
口口①口 |①---|
口口③① |--②-|
口②口③ |③---|
口④口口 |--④-|
19
口口口口 |①---|
口口口口 |②-③-|
口②①④ |④---|
⑤口③① |--⑤-|
20
口⑥⑤④ |①-②-|
⑦口口口 |③-④-|
⑧口口③ |⑤-⑥-|
口①②口 |⑦-⑧-|
21
口口口口 |①---|
口①①口 |----|
口①①口
口口口口

口口口口
口口②口
口口口口 |----|
口口口口 |--②-|
22
口①口口 |①---|
①③口口 |--②-|
③口②口 |③---|
口口④口 |--④-|
23
口口口口 |①---|
口口口口 |②-③-|
④①②口 |④---|
①③口⑤ |--⑤-|
24
④⑤⑥口 |①-②-|
口口口⑦ |③-④-|
③口口⑧ |⑤-⑥-|
口②①口 |⑦-⑧-|
25
口口口口 |①---|
口①①口 |----|
口①①口
口口口口

口口口口
口口③口
口②口口 |----|
口口口口 |②-③-|
26
④③②① |①-②-|
⑤口口口 |③-④-|
口⑥口⑧ |⑤-⑥-|
口口⑦口 |⑦-⑧-|
27
口口口口 |①---|
口③口口 |----|
口口②口 |----|
①口口① |--②③|
28
①②③④ |①-②-|
口口口⑤ |③-④-|
⑧口⑥口 |⑤-⑥-|
口⑦口口 |⑦-⑧-|
29
口口口口 |①---|
口口口口 |----|
口②口口 |----|
①口口① |--②-|
30
口④口口 |①-②-|
口口⑤口 |③-④-|
口⑥③口 |⑤---|
口②①口 |--⑥-|
31
口口口口 |①-②-|
口口口口 |③-④-|
④口②口
口③①口

口口⑤口
口⑧口⑥
口口⑦口 |⑤-⑥-|
口口口口 |⑦-⑧-|
32
①口口① |①---|
口⑥③口 |--②③|
①②⑤① |④---|
④口口口 |--⑤⑥|
33
口口口口 |①---|
口口③口 |--②③|
口②口口 |④---|
④口口① |----|
34
①口口① |①---|
口②口口 |--②-|
口①①口
口口口口

口口③口
口口口③
口④口口 |③---|
口口口口 |--④-|
35
口口口口 |①---|
口口①口 |--②-|
口④③① |③---|
口②⑤③ |④-⑤-|
36
口口口口 |①---|
口口口口 |--②-|
口口口①
②口口口

口口口⑥
口口口口
口口口⑤ |③-④-|
口③④口 |⑤-⑥-|
37
口②①口 |①-②-|
③⑤⑤口 |③-④-|
④⑤⑤口 |⑤---|
口口口口 |----|
38
口②口口 |----|
②口①口 |--①-|
口口③口 |②---|
口口口口 |--③-|
39
口口口口 |①---|
口①口口 |--②-|
①③④口 |③---|
③⑤②口 |④-⑤-|
40
口口口口 |①---|
口口口口 |--②-|
①口口口
口口口②

⑥口口口
口口口口
⑤口口口 |③-④-|
口④③口 |⑤-⑥-|
41
口①②口 |①-②-|
口⑤⑤③ |③-④-|
口⑤⑤④ |⑤---|
口口口口 |----|
42
口口③口 |----|
口②口③ |----|
①口口口 |①②③-|
口口口口 |----|
43
口②口口 |----|
①口③口 |①②③-|
口口口④ |④---|
口口④口 |----|
44
口口②口 |----|
口③口① |①②③-|
④口口口 |④---|
口④口口 |----|
45
③口口① |①---|
②③①口 |②---|
口②③口 |③---|
①口②③ |----|
46
口口口① |①---|
口口①口 |----|
口①口口
①口口口

口口④⑤
口③口口
②口口口 |②③④⑤|
口口口口 |----|
47
⑤②口⑤ |----|
①口③口 |①②③-|
口口口④ |④---|
口口口口 |--⑤-|
48
口口②口 |----|
口③口① |①②③-|
④口口口 |④---|
口口口口 |----|
49
口③③口 |①---|
①③③① |②---|
③②②③ |③---|
口口口口 |----|
50
口口②口 |----|
①①口② |--①-|
③③口口 |②---|
口口口口 |--③-|
51
口口口口 |①---|
口口①口 |--②-|
口④③① |③---|
②②⑤③ |④-⑤-|
52
口口口口 |①---|
口口口口 |--②-|
口口口①
②口口口

口口口⑥
口口口口
口口口⑤ |③-④-|
口③④口 |⑤-⑥-|
53
口②①口 |①-②-|
③⑤口口 |③-④-|
④口⑤⑤ |⑤---|
口⑤口口 |----|
54
口②口口 |----|
②口①① |--①-|
口口③③ |②---|
口口口口 |--③-|
55
口口口口 |①---|
口①口口 |--②-|
①③④口 |③---|
③⑤②② |④-⑤-|
56
口口口口 |①---|
口口口口 |--②-|
①口口口
口口口②

⑥口口口
口口口口
⑤口口口 |③-④-|
口④③口 |⑤-⑥-|
57
口①②口 |①-②-|
口口⑤③ |③-④-|
⑤⑤口④ |⑤---|
口口⑤口 |----|
58
口口⑤口 |①-②-|
④④口⑤ |③-④-|
⑥⑥③口 |⑤---|
②口口① |--⑥-|
59
口口口口 |①---|
口口①口 |--②-|
口④③① |③---|
②②⑤③ |④-⑤-|
60
口口口口 |①---|
口口口口 |--②-|
口口口①
②口口口

口口口⑥
口口口口
口口口⑤ |③-④-|
口③④口 |⑤-⑥-|
61
口②①口 |①-②-|
③⑤口口 |③-④-|
④口⑤⑤ |⑤---|
口⑤口口 |----|
62
口②口口 |----|
②口①① |--①-|
口口③③ |②---|
口口口口 |--③-|
63
口口口口 |①---|
口①口口 |--②-|
①③④口 |③---|
③⑤②② |④-⑤-|
64
口口口口 |①---|
口口口口 |--②-|
①口口口
口口口②

⑥口口口
口口口口
⑤口口口 |③-④-|
口④③口 |⑤-⑥-|
65
口①②口 |①-②-|
口口⑤③ |③-④-|
⑤⑤口④ |⑤---|
口口⑤口 |----|


不確定度: 0

最終更新:2013年03月17日 02:05