海の見える街
新井 大樹

EXTREME

Level: 8
BPM: 135
Notes: 615

1
口口口口 |----|
口口口口 |----|
口口口口 |----|
口口口口 |----|
2
口口③① |①②③-|
口②口③ |④---|
①口②口
③③口④

口⑥口口
⑤口⑦口
口口口口 |----|
⑤口口口 |⑤⑥⑦-|
3
口口④口 |①---|
口⑤口③ |②---|
①口口① |----|
③①①② |③④⑤-|
4
口口口③ |①---|
口口③口 |②---|
①④口口 |③---|
④①④② |④---|
5
口口口口 |①---|
口①③口 |②---|
口③①口 |③---|
④口口② |④---|
6
口⑦③④ |①②③④|
⑥②⑧口 |⑤---|
①口口口 |----|
⑥口口⑤ |⑥⑦⑧-|
7
口口⑤③ |①---|
口⑥口④ |②-③-|
口口口① |----|
④口口② |④⑤⑥-|
8
口口口口 |①---|
③口口③ |②---|
①④④口 |③---|
④口口② |④---|
9
口①①口 |①---|
口④口口 |②---|
①口口① |----|
③口口② |③-④-|
10
①口①口 |①---|
口口③① |--②-|
口②①③ |③---|
口④口口 |--④-|
11
口口口口 |①---|
口口口口 |②-③-|
口②①④ |④---|
⑤口③① |--⑤-|
12
口⑥⑤④ |①-②-|
⑦口口口 |③-④-|
⑧口口③ |⑤-⑥-|
口①②口 |⑦-⑧-|
13
口口口口 |①---|
口①①口 |----|
口①①口
口口口口

口口口口
口口②口
口口口口 |----|
口口口口 |--②-|
14
口①口口 |①---|
①③口口 |--②-|
③口②口 |③---|
口口④口 |--④-|
15
口口口口 |①---|
口口口口 |②-③-|
④①②口 |④---|
①③口⑤ |--⑤-|
16
④⑤⑥口 |①-②-|
口口口⑦ |③-④-|
③口口⑧ |⑤-⑥-|
口②①口 |⑦-⑧-|
17
口口口口 |①---|
口①①口 |----|
口①①口
口口口口

口口口口
口②口口
口口口口 |----|
口口口口 |--②-|
18
口口①口 |①---|
口口④① |②-③-|
口③口④ |④---|
②⑥⑤口 |⑤-⑥-|
19
口口口口 |①---|
口口口口 |②-③-|
口②①口
②口③①

口口口口
口口口口
口口口④ |④---|
⑥口口⑤ |⑤-⑥-|
20
口口口④ |①-②-|
口口口口 |③-④-|
③口口③
口①②口

口⑥⑤口
⑦口口口
⑧口口口 |⑤-⑥-|
口口⑦口 |⑦-⑧-|
21
口口口口 |①---|
口①①口 |②---|
口①①口
口②口口

口口口口
口口④口
口口口口 |----|
口口口③ |③-④-|
22
口①口口 |①---|
①④口口 |②-③-|
④口③口 |④---|
②口⑥⑤ |⑤-⑥-|
23
口口口口 |①---|
口②口口 |②-③-|
④①②⑤ |④---|
①③口⑥ |⑤-⑥-|
24
④口口口 |①-②-|
口口口口 |③-④-|
③口口口
③②①口

口⑤⑥口
口口口⑦
口口口⑧ |⑤-⑥-|
口口⑦口 |⑦-⑧-|
25
口口口口 |①---|
口①①口 |②---|
口①①口
口②口口

口口口口
口口⑤口
口④口口 |--③-|
口口③口 |④-⑤-|
26
④③②① |①-②-|
⑤口口口 |③-④-|
口⑥口⑧ |⑤-⑥-|
口口⑦口 |⑦-⑧-|
27
口口口口 |①---|
口⑤②口 |②---|
口口④口 |----|
①③口① |③-④⑤|
28
①②③④ |①-②-|
口口⑦⑤ |③-④-|
⑧口⑥口 |⑤-⑥-|
③⑦口口 |⑦-⑧-|
29
口口口口 |①---|
口口口口 |②---|
口口口口
①口②①

口口口口
口口口口
口④口口 |----|
③口口口 |③-④-|
30
口④口口 |①-②-|
口③⑤口 |③-④-|
口⑦③口 |⑤---|
⑥②①口 |⑥-⑦-|
31
口口口口 |①-②-|
口口口口 |③-④-|
④口②口
口③①③

口口⑤口
口⑧口⑥
口口⑦口 |⑤-⑥-|
⑦口口口 |⑦-⑧-|
32
①口口① |①---|
口⑧④口 |②-③④|
①③⑦① |⑤---|
⑤⑥口② |⑥-⑦⑧|
33
口口口口 |①---|
口口④口 |②-③④|
口③口⑥ |⑤---|
⑤口②① |⑥---|
34
口①③① |①--②|
②③②③ |--③-|
①口①口
③②③②

④口口口
口口口口
口⑥⑤口 |④---|
口口口口 |⑤-⑥-|
35
口口口口 |①---|
口口①口 |②-③-|
口口口①
口③②口

口口口口
口口⑤口
口⑤④口 |④---|
口口⑥④ |⑤-⑥-|
36
口口口口 |①---|
口口口口 |②-③-|
口口口①
③口口②

口口口⑦
口口口口
⑥口口⑥ |④-⑤-|
口④⑤口 |⑥-⑦-|
37
口②①口 |①-②-|
③⑤⑤口 |③-④-|
④⑤⑤口 |⑤---|
口⑥③口 |⑥---|
38
口③口② |----|
③口②⑤ |①-②-|
口口⑤口 |③---|
口④①口 |④-⑤-|
39
口口口口 |①--②|
口①口⑤ |--③-|
①④⑤口 |④---|
④⑥③② |⑤-⑥-|
40
口口口口 |①---|
口①口③ |②-③-|
①口口口
②口口③

⑦口口口
⑥⑤④口
⑥口口口 |④-⑤-|
口⑤④口 |⑥-⑦-|
41
口①②口 |①-②-|
口⑤⑤③ |③-④-|
口⑤⑤④ |⑤---|
⑥口口⑦ |⑥--⑦|
42
③口⑦④ |--①-|
口⑥②⑦ |②-③④|
⑤①口⑥ |⑤⑥⑦-|
口⑧⑤口 |⑧---|
43
口②口口 |----|
①口③② |①②③-|
口③①④ |④---|
口⑤④口 |⑤---|
44
口口②口 |----|
②③口① |①②③-|
④①③口 |④---|
口④口⑤ |⑤---|
45
③①口口 |①---|
②③①口 |②---|
口②③① |③---|
①④②③ |④---|
46
口口口① |①---|
口口①口 |②---|
口①口口
①口②口

⑥⑤⑤⑥
口④口口
③⑦④口 |③④⑤⑥|
口口口③ |⑦---|
47
口②②口 |----|
①口③口 |①②③-|
口③①口
口口口口

⑥口口口
⑥口口口
口口口④ |④---|
④口⑤口 |⑤-⑥-|
48
口口②口 |----|
口③口① |①②③-|
④②③口 |④---|
⑤①口④ |⑤---|
49
①③③① |①---|
①③③① |②---|
③②②③ |③---|
④②②④ |④---|
50
口口③口 |----|
②②口③ |①-②-|
⑤⑤口口 |③---|
④①①④ |④-⑤-|
51
口②口口 |①---|
口口①② |②-③-|
口口口①
③③口口

口口口口
口口⑤口
口⑤④口 |④---|
口口⑥④ |⑤-⑥-|
52
口口口口 |①---|
口②口口 |②-③-|
口口②①
③口口口

⑥口口⑦
口⑦④口
⑤口口⑥ |④-⑤-|
口④⑤口 |⑥-⑦-|
53
口②①⑤ |①-②-|
③⑤④② |③-④-|
④①⑤口 |⑤---|
口⑤③⑥ |⑥---|
54
口③口口 |----|
③口②② |①-②-|
口口⑤⑤ |③---|
①口口④ |④-⑤-|
55
口口口口 |①---|
口①口口 |②-③-|
①口口口
口②③③

口口口口
口口口口
口④⑤⑤ |④---|
④⑥口口 |⑤-⑥-|
56
口口口口 |①---|
口口口口 |②-③-|
①②口口
口口口③

⑦口口口
④口⑤口
⑥口⑦⑥ |④-⑤-|
口⑤④口 |⑥-⑦-|
57
口口②口 |①-②-|
④①口③ |③-④-|
口②口④
口③口①

⑤⑧口⑥
口⑦⑤口
⑤口口口 |⑤-⑥-|
口口⑤口 |⑦-⑧-|
58
口口口口 |①-②-|
④④口口 |③-④-|
③③③③
②①②①

口口⑤口
口口口⑤
⑦⑦口口 |⑤---|
口口⑥口 |⑥-⑦-|
59
口口口口 |①---|
口②①口 |②-③-|
口口口①
③③口口

口口口口
⑥口⑤口
口⑤④口 |④---|
口口⑥④ |⑤-⑥-|
60
口①口口 |①---|
口口口口 |②-③-|
口口②①
③口口口

⑥口口⑦
口⑤口④
口⑦口⑥ |④-⑤-|
口④⑤口 |⑥-⑦-|
61
口②①⑤ |①-②-|
③⑤口② |③-④-|
④口④⑤ |⑤---|
①⑤③⑥ |⑥---|
62
口③口口 |----|
③口②② |①-②-|
口口⑤⑤ |③---|
①④口口 |④-⑤-|
63
口口①口 |①---|
口①③口 |--②-|
①③④口 |③---|
③⑤②② |④-⑤-|
64
口口口口 |①---|
口①口口 |②-③-|
①口口口
②口口③

⑦口口⑥
口口⑤口
⑥④⑦口 |④-⑤-|
口⑤④口 |⑥-⑦-|
65
口①②口 |①-②-|
口②口③ |③-④-|
口④口④
口③口①

⑤口口⑥
口⑥⑤口
⑤口口口 |⑤---|
口口⑤⑦ |⑥--⑦|
66
③口口④ |--①-|
④口口③ |②-③④|
口②②口 |----|
①口口口 |----|


不確定度: 0

最終更新:2013年03月17日 02:05