Thor's Hammer
ユニバーサル度胸兄弟

EXTREME

Level: 10
BPM: 150
Notes: 810

1
口口口口 |----|
口口口口 |----|
口口口口 |----|
口口口口 |----|
2
口口口口 |----|
口口口口 |----|
口口口口 |----|
口①①口 |--①-|
3
口①①口 |①--②|
⑤④②③ |③--④|
口⑧⑥⑦ |⑤--⑥|
口口口口 |⑦--⑧|
4
③口口② |①---|
③口口② |②---|
①口口④ |③---|
①⑤⑤④ |④-⑤-|
5
口①①口 |①--②|
⑤④②③ |③--④|
口⑧⑥⑦ |⑤--⑥|
口口口口 |⑦--⑧|
6
③口⑤② |①---|
③口⑥② |②---|
①口⑦④ |③---|
①口口④ |④--⑤⑥⑦|
7
⑨⑦口① |①②③④|
口④口③ |⑤---|
口⑩口⑧ |⑥⑦⑧⑨|
⑤②①⑥ |⑩---|
8
⑥⑪②④ |①②③④|
⑧⑫⑩口 |⑤---|
③⑬⑤口 |⑥⑦⑧⑨|
①口⑦⑨ |⑩--⑪⑫⑬|
9
口口③① |①-②-|
④口口① |③-④-|
②口口③
口①口口

口口口口
口⑦⑤口
⑧口口口 |⑤-⑥-|
⑥口⑦⑤ |⑦-⑧-|
10
①②③④ |①-②-|
口口口⑤ |③-④-|
口口口⑥ |⑤-⑥-|
口口⑧⑦ |⑦-⑧-|
11
⑤⑥⑦⑧ |①②③④|
④口口口 |⑤⑥⑦⑧|
③口口口
②①口口

口口口口
⑯口口⑨
⑮口口⑩ |⑨⑩⑪⑫|
⑭⑬⑫⑪ |⑬⑭⑮⑯|
12
①口②口 |①-②③|
口③①⑤ |④---|
⑥①④口 |⑤⑥⑦-|
口口口⑦
13
口口口④ |--①②|
⑤口①口 |③---|
口②口⑥ |④⑤⑥-|
口口③口
14
口口④口 |①-②-|
口口⑤③ |③-④-|
口口②⑥ |⑤-⑥-|
口口口①
15
口口⑥② |①-②-|
口口口④ |③-④-|
口口⑤口 |⑤-⑥-|
口口①③
16
⑥②口口 |①--②③④|
⑦③口口 |⑤--⑥⑦⑧|
⑧④口① |⑨---|
⑨⑤口口
17
口⑤⑤口 |①---|
口④④① |②-③-|
口③③① |④-⑤-|
口②②口
18
口口口③ |①---|
①④口① |②-③-|
①④口① |④-⑤-|
②②口⑤
19
①①⑥口 |①-②-|
③口②口 |③-④-|
③口口④ |⑤-⑥-|
⑤⑤口口
20
①①口口 |①---|
③口口④ |②-③-|
口③口⑤ |④-⑤-|
口口口②
21
②口③⑧ |①-②-|
⑥口④⑦ |③④⑤⑥--|
口口⑤口 |⑦-⑧-|
①①⑥口
22
④②口口 |①---|
口口③⑤ |②-③-|
②④口口 |④-⑤-|
①①⑤③
23
口⑤④② |①-②-|
①③⑥口 |③-④-|
⑤口②④ |⑤-⑥-|
③①口⑥
24
口口⑥② |①-②③|
⑤③口⑤ |④-⑤-|
口⑦④口 |⑥⑦⑧-|
口①①⑧
25
口②⑨⑦ |①---|
④口口⑤ |②③④⑤|
①⑧③① |⑥⑦⑧⑨|
⑥①①口
26
②⑦⑫口 |①②③④|
⑨⑤④⑦ |⑤⑥⑦⑧|
③⑪口⑩ |⑨⑩⑪⑫|
口①⑧⑥
27
③⑦口⑫ |①②③④|
⑨⑦④⑥ |⑤⑥⑦⑧|
⑤⑪②⑩ |⑨⑩⑪⑫|
①①⑧口
28
③⑨⑤⑫ |①②③④|
⑩口⑥⑬ |⑤-⑥-⑦-⑧--⑨--|
⑧⑪⑦⑭ |⑩--⑪--⑫-⑬-⑭-|
①④⑧②
29
③口④⑩ |①②③④|
⑨①口口 |⑤⑥⑦⑧|
⑦⑪⑥⑫ |⑨⑩⑪⑫|
②⑤⑧①
30
⑨①⑧⑩ |①②③④|
⑪③⑥② |⑤⑥⑦⑧|
⑦口口⑫ |⑨⑩⑪⑫|
⑤⑦口④
31
⑨①⑧⑪ |①②③④|
口③⑥⑫ |⑤⑥⑦⑧|
⑦①②⑬ |⑨--⑩--⑪-⑫-⑬-|
⑤⑩④口
32
口⑧口口 |①-②③|
①⑦④口 |④-⑤-|
口⑥③口 |⑥⑦⑧-|
⑤口②①
33
⑦口⑥② |①--②③④|
⑧口口③ |⑤-⑥-|
⑨口口④ |⑦⑧⑨⑩--|
⑩①口⑤
34
口口口口 |①---|
口①①口 |----|
口①①口 |----|
口口口口
35
口口④② |①-②-|
⑤⑥①③ |③-④-|
⑥⑤②① |⑤-⑥-|
口口③④
36
①③口④ |①-②-|
口口②口 |③④⑤⑥|
口口口口
⑤①口⑥

⑩口口口
⑦⑧口口
⑨口口口 |⑦⑧⑨⑩|
口口口口
37
口口④③ |①-②-|
⑤⑥②① |③-④-|
⑥⑤①② |⑤-⑥-|
口口③④
38
②②口⑤ |①-②-|
⑦口③口 |③④⑤⑥|
⑨口⑧⑩ |⑦⑧⑨⑩|
①①⑥④
39
②④①⑤ |①-②-|
⑥③③② |③-④-|
口口口口 |⑤-⑥-|
⑤①④⑥
40
⑥⑧⑩口 |①②③④|
口⑤⑪④ |⑤-⑥⑦|
①⑦⑫② |⑧--⑨--⑩-⑪-⑫-|
⑨③口口
41
口⑨⑩口 |①②③④|
①④⑪⑥ |⑤-⑥⑦|
③⑧⑫⑤ |⑧--⑨--⑩-⑪-⑫-|
口②①⑦
42
⑥⑧口③ |①-②-|
②②口④ |③④⑤⑥--|
⑦⑦口⑤ |⑦-⑧-|
①①①⑥
43
口口②⑥ |①-②-|
④④①⑤ |③-④-|
口口②⑥ |⑤-⑥-|
③③①⑤
44
②①③口 |①-②-|
⑦⑦④⑧ |③④⑤⑥--|
②①⑤口 |⑦-⑧-|
⑥⑥⑥⑧
45
③③⑥① |①-②-|
口⑤④⑥ |③-④-|
②②口① |⑤-⑥-|
口⑤④口
46
口口⑤④ |①-②-|
①口④⑤ |--③-|
口口②③ |④-⑤-|
①口③②
47
④⑥⑧口 |①-②-|
③③口口 |③-④⑤|
②②口⑨ |⑥⑦⑧⑨|
①①⑦⑤
48
④口口② |①-②-|
④口①② |③---|
③口⑤⑤ |④-⑤-|
③①口口
49
口②②口 |①-②-|
口①①口 |③-④-|
口③口口 |⑤-⑥-|
口⑥⑤④
50
④⑤⑥口 |①-②-|
③口①口 |③-④-|
②口①口 |⑤-⑥-|
①口口口
51
口口口① |①-②-|
口①口② |③-④-|
口①口③ |⑤-⑥-|
口⑥⑤④
52
④⑤⑥口 |①-②-|
③口口口 |③-④-|
②①①口 |⑤-⑥-|
①口口口
53
口口口① |①-②-|
口①①② |③-④-|
口口口③ |⑤-⑥-|
口⑥⑤④
54
④⑤⑥口 |①-②-|
③口口口 |③-④-|
②①①口 |⑤-⑥-|
①口口口
55
口口口① |①-②-③-|
⑨①①② |④-⑤-⑥-|
⑧口口③ |⑦-⑧-⑨-|
⑦⑥⑤④
56
①②③④ |①②③④|
⑫①口⑤ |⑤⑥⑦⑧|
⑪①口⑥ |⑨⑩⑪⑫|
⑩⑨⑧⑦
57
①②③④ |①②③④|
口口①⑤ |⑤⑥⑦⑧|
口口①⑥
口口⑧⑦

口口口口
口⑪⑫口
口⑩口口 |⑨⑩⑪⑫|
口⑨口口
58
②③口口 |①-②-|
口口口④ |③-④-|
口口①口 |⑤-⑥-|
⑤⑥口口
59
口口④口 |①-②-|
⑤⑥口口 |③-④-|
②③口口 |⑤-⑥-|
口口口①
60
口口口口 |①---|
口口口口 |--②-|
口口口口 |----|
①②口口
61
口口①口 |①---|
口①①① |----|
口口①口 |----|
口口①口
62
③口③③ |①---|
②④②② |②-③-|
⑤口⑤⑤ |④-⑤-|
①口①①
63
④口④④ |①-②-|
③⑤③③ |③-④-|
⑥②⑥⑥ |⑤-⑥-|
①口①①
64
④③⑤④ |①--②|
口口⑥② |③-④-|
口口⑦口 |⑤⑥⑦⑧--|
①口⑧①
65
⑤口⑤口 |①-②-|
②④口④ |③-④-|
③⑥⑥③ |⑤-⑥-|
①口口①
66
口口口③ |①---|
口口①③ |②-③-|
口口④② |--④-|
口①④②
67
口口①④ |①-②-|
③③①⑤ |③--④⑤⑥|
②②口⑥ |⑦-⑧-|
口⑧⑧⑦
68
口⑦⑥⑧ |①②③④|
⑪⑤④⑫ |⑤⑥⑦⑧|
⑨③②⑩ |⑨⑩⑪⑫|
①口口口
69
①口⑧口 |①②③④|
⑪⑦⑥⑫ |⑤⑥⑦⑧|
⑨⑤④⑩ |⑨⑩⑪⑫|
口③②口
70
①③口口 |①---|
口④口口 |②-③④|
口⑥口⑤ |⑤-⑥⑦|
②口⑦②
71
⑨⑥口⑦ |①②③-|
口⑧口③ |④⑤⑥⑦|
口⑩②口 |⑧-⑨⑩|
④①口⑤
72
口⑤口口 |①②③-|
①⑥口口 |④-⑤⑥|
③⑧口⑦ |⑦-⑧⑨|
④②⑨④
73
⑨⑥口⑦ |①②③-|
口⑧口③ |④⑤⑥⑦|
口⑩②口 |⑧-⑨⑩|
④①口⑤
74
⑩⑦①口 |①-②③④-⑤-----|
①⑧②口 |⑥-⑦⑧|
⑤⑪④⑨ |⑨-⑩⑪|
⑥③⑤⑥
75
⑧⑤口口 |①②③-|
①⑥口口 |④-⑤⑥|
③⑨口⑦ |⑦-⑧⑨|
④②口④
76
口⑦①⑩ |①-②③④-⑤-----|
①⑧②口 |⑥-⑦⑧|
⑤⑩④⑨ |⑨-⑩-|
⑥③⑤⑥
77
⑧口①⑫ |①②③④--|
⑦口②⑪ |⑤⑥⑦⑧-⑨|
⑥⑬③⑩ |⑩⑪⑫⑬--|
⑤口④⑨
78
③③④④ |--①-|
⑤①②口 |②-③-|
口口口口 |④-⑤-|
⑤①②口
79
口口口口 |①---|
口口②① |--②-|
②②②② |----|
口口②①
80
口口口口 |①---|
口①口① |----|
口口口口 |----|
口①口①

不確定度: 0

最終更新:2014年05月19日 21:28