Confiserie
L.E.D. vs S-C-U

EXTREME

Level: 10
BPM: 185
Notes: 1021

1
口口口口 |----|
口口口口 |----|
口口口口 |----|
口口口口 |----|
2
③①口口 |①②③④|
⑤口口⑧ |⑤⑥⑦⑧|
⑦口口⑥
口口②④

口⑮⑫⑩
口⑭⑯口
口⑬⑰口 |⑨⑩⑪⑫|
⑨⑪⑱口 |⑬⑭⑮⑯⑰⑱|
3
①口口口 |①--②|
⑥口⑧⑤ |③-④-|
口⑦口③ |⑤-⑥-|
④口口② |⑦-⑧-|
4
①口口口 |①--②|
口⑥口口 |--③-|
③口⑤④ |--④-|
口口口② |⑤-⑥-|
5
口②②⑤ |①--②|
③⑥⑦③ |--③-|
口⑧⑨口 |-④-⑤|
④①①口 |⑥⑦⑧⑨|
6
③①口口 |①②③④|
⑤口口⑧ |⑤⑥⑦⑧|
⑦口口⑥
口口②④

⑲⑱⑪⑩
口⑫⑬口
口⑭⑮口 |⑨--⑩--⑪-⑫-⑬-|
⑨⑯⑰口 |⑭⑮⑯⑰⑱⑲|
7
口⑧口⑤ |①-②-|
②⑥⑨口 |③-④-|
口⑩⑦③ |⑤-⑥-|
④口口① |⑦--⑧⑨⑩|
8
②口口口 |①-②-|
②口口③ |③-④-|
④口口③
④口①①

口⑨⑧口
口⑦口口
口⑫⑥口 |⑤⑥⑦⑧|
口⑤⑪⑩ |⑨--⑩⑪⑫|
9
③口口② |①②③④|
①口口④ |⑤⑥⑦⑧|
⑤口⑧⑥
口⑦口口

口⑪⑩口
⑮⑨⑫口
口⑯口口 |⑨⑩⑪⑫|
⑬口⑰⑭ |⑬--⑭--⑮-⑯-⑰-|
10
②口③① |①--②|
口④口① |--③-|
②口③⑦ |④---|
⑤④⑥口 |---⑤⑥⑦|
11
①①口② |①-②③|
⑥⑥③⑦ |④-⑤-|
④④⑨口 |⑥-⑦-|
⑧⑧口⑤ |⑧-⑨-|
12
①①口口 |①-②-|
⑤⑤②⑧ |③-④-|
③③口④ |⑤-⑥-|
⑦⑦口⑥ |⑦-⑧-|
13
①①口② |①-②③|
⑥⑥③口 |④-⑤-|
④④⑦口 |⑥-⑦-|
⑧⑧⑤⑨ |⑧-⑨-|
14
①①⑥② |①--②③④|
口口口③ |⑤-⑥-|
⑤⑤口④
口口口口

⑩口口口
⑦⑦口口
口口⑧口 |⑦-⑧-|
⑨⑨口口 |⑨-⑩-|
15
口①口口 |①-②-|
⑤⑤②④ |③-④-|
③③⑧口 |⑤-⑥-|
⑦⑦口⑥ |⑦-⑧-|
16
①①口⑥ |①-②-|
⑤⑤②⑦ |③-④-|
③③⑩⑧ |⑤--⑥⑦⑧|
⑨⑨④口 |⑨-⑩-|
17
①①口口 |①-②-|
⑤⑤②⑥ |③-④-|
③③口⑥ |⑤-⑥-|
⑦⑦口④ |⑦---|
18
①①口口 |①---|
③③口口 |②---|
②②口⑥ |③---|
④口⑤口 |---④⑤⑥|
19
①①口② |①-②③|
⑥⑥③⑦ |④-⑤-|
④④⑨口 |⑥-⑦-|
⑧⑧口⑤ |⑧-⑨-|
20
①①口口 |①-②-|
口口②口 |③-④-|
③③口④
口口口口

⑧口口口
⑤⑤口⑧
口口口口 |⑤-⑥-|
⑦⑦口⑥ |⑦-⑧-|
21
口①口② |①-②③|
⑥⑥③口 |④-⑤-|
④④⑦口 |⑥-⑦-|
⑧⑧⑤⑨ |⑧-⑨-|
22
①①⑥② |①--②③④|
口口口③ |⑤-⑥-|
⑤⑤口④
口口口口

⑩口口口
⑦⑦口口
口口⑧口 |⑦-⑧-|
⑨⑨口口 |⑨-⑩-|
23
⑧①口口 |①-②-|
⑤⑤②④ |③-④-|
③③⑧口 |⑤-⑥-|
⑦⑦口⑥ |⑦-⑧-|
24
口①口⑥ |①-②-|
⑤⑤②⑦ |③-④-|
③③⑩⑧ |⑤--⑥⑦⑧|
⑨⑨④口 |⑨-⑩-|
25
①①②⑥ |①-②-|
⑤⑤口口 |③-④-|
③③口⑥ |⑤-⑥-|
⑦⑦口④ |⑦---|
26
①①口口 |①---|
③⑤⑥④ |②---|
②②口口 |③④⑤⑥|
⑦⑨⑩⑧ |⑦⑧⑨⑩|
27
①③③① |①--②|
⑦⑥④⑤ |--③-|
口②②口 |④⑤⑥⑦|
⑪⑩⑧⑨ |⑧⑨⑩⑪|
28
①③③① |①--②|
口⑦④⑤ |--③-|
口②②口 |-④⑤-|
口⑥口口 |⑥-⑦-|
29
⑥②②⑥ |①--②|
⑤口口⑤ |--③-|
①③③① |--④-|
口④④口 |⑤-⑥-|
30
⑪⑫⑬口 |----|
⑧⑦⑤⑥ |①②③④|
③④②① |⑤⑥⑦⑧|
口口⑨⑩ |⑨--⑩--⑪-⑫-⑬-|
31
⑪⑩口① |①--②|
⑦⑥③③ |--③-|
②口④⑤ |④⑤⑥⑦|
②口⑧⑨ |⑧⑨⑩⑪|
32
⑪⑦①① |①--②|
⑩⑥⑤⑨ |--③-|
③③④⑧ |④⑤⑥⑦|
②②口口 |⑧⑨⑩⑪|
33
口口②③ |①-②③|
口口口口 |-④⑤-|
⑤④口口
口①①口

口口口口
⑦口⑧⑥
口口口口 |--⑥-|
⑦口⑧⑥ |⑦-⑧-|
34
口①①口 |①---|
口⑤口口 |②③④⑤|
口口③②
口④口口

⑨⑬口口
口口⑪⑦
⑧⑫口口 |⑥⑦⑧⑨|
口口⑩⑥ |⑩⑪⑫⑬|
35
⑦口①① |①--②|
⑥⑪⑨⑧ |--③-|
口⑩③③ |④⑤⑥⑦|
②②⑤④ |⑧⑨⑩⑪|
36
口口①① |①--②|
口口口口 |--③-|
②口口③
②口口③

口⑦⑦口
口口⑤口
口⑥⑥口 |-④⑤-|
口口④口 |⑥-⑦-|
37
③口口③ |①--②|
①⑥⑤① |--③-|
④口口口 |--④-|
②⑥⑤② |⑤-⑥-|
38
④③①② |----|
口⑪⑨口 |①②③④|
⑧⑦⑤⑥ |⑤⑥⑦⑧|
口⑫⑩口 |⑨⑩⑪⑫|
39
⑬口④⑪ |①-②③|
③⑨⑦① |④-⑤-|
⑧口⑤⑥ |⑥⑦⑧⑨|
⑤⑫⑩② |⑩⑪⑫⑬|
40
⑬口⑤⑪ |①-②③|
⑤⑨⑦② |④-⑤-|
⑧口④⑥ |⑥⑦⑧⑨|
③⑫⑩① |⑩⑪⑫⑬|
41
⑥⑥⑥⑥ |①---②-|
③⑤④② |--③---|
④①口③ |④---⑤-|
②口⑤① |--⑥---|
42
口口口口 |----|
口口②① |----|
口口口口 |----|
口口口口 |--①②|
43
口口口③ |①-②③|
口①口口 |-④⑤⑥|
口口②口
④⑤口⑥

口⑨口口
⑩⑪口口
口⑧口⑦ |⑦-⑧⑨|
口口⑫口 |-⑩⑪⑫|
44
口口③② |①-②③|
口口口④ |④⑤⑥⑦|
⑤口①⑥
⑦口口口

口口口口
口⑩⑨口
口⑭⑬口 |⑧-⑨⑩|
口⑫⑪⑧ |⑪⑫⑬⑭|
45
④②①③ |①②③④|
⑥⑩⑨⑤ |⑤⑥⑦⑧|
⑧⑯⑮⑦ |⑨⑩⑪⑫|
⑫⑭⑬⑪ |⑬⑭⑮⑯|
46
口口①① |①---|
口⑨⑧口 |----|
⑤⑦⑥④ |②③④⑤|
③口口② |⑥⑦⑧⑨|
47
①⑪⑩① |①-②③|
⑤口口③ |-④⑤-|
⑦⑬⑫⑥ |⑥⑦⑧⑨|
⑨④②⑧ |⑩⑪⑫⑬|
48
①口口① |①--②|
②①①② |--③-|
③口口③
口②②口

⑥⑦⑧口
口口口口
口⑤⑤口 |④---|
④口口④ |⑤--⑥⑦⑧|
49
口口口① |①②③④|
②口口口 |⑤⑥⑦⑧|
⑥口口⑤
⑧④③⑦

⑯口口⑭
⑮⑪⑨⑬
口⑫⑩口 |⑨⑩⑪⑫|
口口口口 |⑬⑭⑮⑯|
50
口⑤③口 |①-②③|
口⑥⑥口 |-④⑤-|
④口口② |⑥---|
口①①口 |----|
51
⑯⑧④③ |①②③④|
⑮⑦⑫⑪ |⑤⑥⑦⑧|
⑥⑭⑩⑨ |⑨⑩⑪⑫|
⑤⑬②① |⑬⑭⑮⑯|
52
⑬⑧④③ |①②③④|
⑭⑦⑫⑪ |⑤⑥⑦⑧|
⑥⑮⑩⑨ |⑨⑩⑪⑫|
⑤⑯②① |⑬⑭⑮⑯|
53
⑪⑦②① |①②③④|
⑫⑧⑬⑨ |⑤⑥⑦⑧|
④⑮⑭⑩ |⑨⑩⑪⑫|
③⑯⑥⑤ |⑬⑭⑮⑯|
54
口口①① |①---|
口口口口 |②③④⑤|
⑤口口口
④口③②

⑫⑬⑭口
⑦⑨⑧⑥
口⑪⑩口 |⑥⑦⑧⑨|
口口口口 |⑩--⑪--⑫-⑬-⑭-|
55
⑫⑬⑭① |①-②③|
⑨口⑪⑦ |-④⑤-|
⑤口⑩③ |⑥⑦⑧⑨|
⑧④②⑥ |⑩--⑪--⑫-⑬-⑭-|
56
口口口① |①②③④|
口②口口 |⑤⑥⑦⑧|
⑥口口③
⑧④⑤⑦

口⑮⑫口
⑨⑭⑪⑨
口⑬⑩口 |⑨---|
口口口口 |⑩⑪⑫⑬⑭⑮|
57
②⑥口① |①--②|
④⑥⑤口 |--③-|
②口⑤① |④--⑤|
④口③③ |--⑥-|
58
⑧⑯⑩② |①②③④|
⑦⑮⑨① |⑤⑥⑦⑧|
⑫④⑭⑥ |⑨⑩⑪⑫|
⑪③⑬⑤ |⑬⑭⑮⑯|
59
⑥口口① |①②③④|
⑧口口③ |⑤⑥⑦⑧|
口②口⑤
口④口⑦

口⑭⑩口
口⑮⑪口
⑨⑯⑫口 |⑨--⑩⑪⑫|
口口⑬口 |⑬--⑭⑮⑯|
60
口口口口 |①---|
口口口④ |----|
③口口口 |--②-|
口①口② |③-④-|
61
①③③① |①--②|
口口口⑥ |--③-|
⑤口口口 |--④-|
口②②④ |⑤-⑥-|
62
③口口③ |①--②|
口①①口 |--③-|
④⑤⑥口 |--④-|
口②②口 |⑤-⑥-|
63
②口口③ |①--②|
②口口③ |--③-|
口口口①
口口口口

口口口口
口⑤⑥口
⑤口口⑥ |--④-|
口口④④ |⑤-⑥-|
64
口⑤⑤口 |----|
②口口① |--①-|
口口口口 |②-③-|
口④③口 |④-⑤-|
65
⑤口口⑤ |①-②③|
口口②口 |④-⑤-|
口③口④
①口口①

口口口口
口口口⑦
口口⑥口 |⑥-⑦-|
口口⑧⑨ |⑧-⑨-|
66
⑪⑩①④ |①-②③|
⑫口②⑦ |④-⑤-|
⑬③⑤⑧ |⑥--⑦⑧⑨|
⑥口口⑨ |⑩--⑪⑫⑬|
67
口口②② |①---②-|
口①③口 |--③---|
口①③口
口①①口

⑥口口口
⑥⑥口④
⑥⑥口⑤ |④---⑤-|
⑥口口口 |--⑥---|
68
口口口口 |----|
口口口口 |----|
口口口口 |----|
口口口口 |----|
69
口口①① |①---②-|
口口①口 |--③---|
口口口②
口口③③

⑥④口⑥
④⑥⑥口
⑤口口口 |④---⑤-|
口⑤口口 |--⑥---|
70
⑦②②③ |----|
⑧口口④ |----|
⑨口口⑤ |①-②-|
⑩①①⑥ |③④⑤⑥⑦⑧⑨⑩|
71
口⑥口口 |①-②③|
口①①口 |-④⑤⑥|
口②③口
口④⑤口

口口⑦口
⑪⑫口⑨
⑩口口⑧ |⑦-⑧⑨|
口口口口 |-⑩⑪⑫|
72
⑦口⑧⑥ |①-②③|
⑫口①⑪ |④⑤⑥⑦|
⑩⑤④⑨ |⑧-⑨⑩|
③⑭⑬② |⑪⑫⑬⑭|
73
⑧⑫⑪⑦ |①②③④|
⑭②①⑬ |⑤⑥⑦⑧|
⑩④③⑨ |⑨⑩⑪⑫|
⑥⑯⑮⑤ |⑬⑭⑮⑯|
74
⑦⑤③⑧ |①---|
口口①⑨ |----|
⑥④②⑩ |②③④⑤|
口口口口 |⑥--⑦--⑧-⑨-⑩-|
75
⑨⑦⑥⑫ |①-②③|
⑤口④⑬ |-④⑤-|
⑧⑪⑩⑭ |⑥⑦⑧⑨|
③口②① |⑩--⑪--⑫-⑬-⑭-|
76
口口口口 |①-②③|
⑤③④口 |-④⑤⑥|
⑥口口口
口②口①

⑦⑨⑧口
口口口口
口⑪⑩口 |⑦---|
口⑬⑫口 |⑧⑨⑩⑪⑫⑬|
77
口⑤口口 |①--②|
③①②④ |--③-|
③⑤⑥④ |④--⑤|
①口⑥② |--⑥-|
78
③口口④ |①②③④|
口①②⑥ |⑤⑥⑦⑧|
⑦口口⑧
口⑤口口

口⑬口口
口⑮⑯口
口⑪⑭口 |⑨⑩⑪⑫|
⑨口⑫⑩ |⑬⑭⑮⑯|
79
①⑦②② |①-②-|
①⑦⑧④ |③-④-|
③⑤⑧④ |⑤-⑥-|
⑤③⑥⑥ |⑦-⑧-|
80
①⑩⑭② |①②③④|
⑤⑪⑮⑥ |⑤⑥⑦⑧|
③⑫⑯④ |⑨--⑩⑪⑫|
⑦⑬⑨⑧ |⑬--⑭⑮⑯|
81
口②⑥口 |----|
①③⑦① |①---|
①④⑧① |②③④⑤--|
⑤⑤口口 |---⑥⑦⑧|
82
④④口口 |①-②-|
②④口③ |③-④-|
②口口③ |----|
口口①① |----|

不確定度: 0

最終更新:2014年06月20日 02:43